Это очень забавная история / It's Kind of a Funny Story (Анна Боден / Anna Boden, Райан Флек / Rajan Flek) [2010, США, Драма, комедия, HDRip] DVO

Ответить на тему
 
Автор Сообщение

user ®

Стаж: 11 лет

Сообщений: 15151

Пост Пост: #1 от 16-Фев-2011 01:39

[Цитировать]

Это очень забавная история / It's Kind of a Funny Story Страна: США
Жанр: Драма, комедия
Год выпуска: 2010
Продолжительность: 01:41:18
Перевод: Профессиональный (двухголосый закадровый)
Cубтитры: нет
Режиссер: Анна Боден / Anna Boden, Райан Флек / Rajan Flek
В ролях: Кейр Гилкрист, Дана ДеВестерн, Эмма Робертс, Лорен Грэм, Джим Гэффиган, Карен Чилтон, Зак Галифианакис, Аасиф Мандви, Джаред Голдштейн, Алан Айсинберг...
Описание: Погруженный в клиническую депрессию подросток получает шанс на исцеление.
Качество видео: HDRip [Источник BDRip 720p]
Формат видео: AVI
Видео: 720x384 (1.88:1), 23.976 fps, XviD build 50 ~1603 kbps avg, 0.24 bit/pixel
Аудио: 48 kHz, AC3 Dolby Digital, 3/2 (L,C,R,l,r) + LFE ch, ~448 kbps
Сэмпл: http://multi-up.com/429256

MediaInfo

Общее
Полное имя : D:\Eto.ochen'.zabavnaya.istoriya.2010.DVO.HDRip.XviD.AC3.SiriuS.avi
Формат : AVI
Формат/Информация : Audio Video Interleave
Размер файла : 1,46 Гбайт
Продолжительность : 1 ч. 41 м.
Общий поток : 2061 Кбит/сек
Название фильма : Eto.ochen'.zabavnaya.istoriya.2010.DVO.HDRip.XviD.AC3.SiriuS
Режиссёр : SiriuS1509
Программа кодирования : VirtualDubMod 1.5.10.2 (build 2540/release)
Правообладатель : torrents.by
Примечание : 09.02.2011
Видео
Идентификатор : 0
Формат : MPEG-4 Visual
Профиль формата : Advanced Simple@L5
Параметр BVOP формата : 1
Параметр QPel формата : Нет
Параметр GMC формата : Без точки перехода
Параметр матрицы формата : Выборочная
Идентификатор кодека : XVID
Идентификатор кодека/Подсказка : XviD
Продолжительность : 1 ч. 41 м.
Битрейт : 1603 Кбит/сек
Ширина : 720 пикс.
Высота : 384 пикс.
Соотношение сторон : 1,875
Частота кадров : 23,976 кадр/сек
Цветовое пространство : YUV
Подвыборка цветности : 4:2:0
Битовая глубина : 8 бит
Тип развёртки : Прогрессивная
Метод сжатия : С потерями
Бит/(Пиксели*Кадры) : 0.242
Размер потока : 1,13 Гбайт (78%)
Библиотека кодирования : XviD 1.2.1 (UTC 2008-12-04)
Аудио
Идентификатор : 1
Формат : AC-3
Формат/Информация : Audio Coding 3
Расширение режима : CM (complete main)
Идентификатор кодека : 2000
Продолжительность : 1 ч. 41 м.
Вид битрейта : Постоянный
Битрейт : 448 Кбит/сек
Канал(ы) : 6 канала(ов)
Расположение каналов : Front: L C R, Side: L R, LFE
Частота : 48,0 КГц
Битовая глубина : 16 бит
Метод сжатия : С потерями
Размер потока : 325 Мбайт (22%)
Выравнивание : Разделение по промежуткам
Продолжительность промежутка : 42 мс. (1,00 видеокадр)
Время предзагрузки промежутка : 500 ms

Скриншоты

Скачать

Скачать торрент! Это очень забавная история / It's Kind of a Funny Story (Анна Боден / Anna Boden, Райан Флек / Rajan Flek) [2010, США, Драма, комедия, HDRip] DVO

Как скачивать? · Что такое торрент? · Рейтинг и ограничения

Сайт не распространяет и не хранит электронные версии произведений, а лишь предоставляет доступ к создаваемому пользователями каталогу ссылок на торрент-файлы, которые содержат только списки хеш-сумм

[Профиль] [ЛС]
Показать сообщения:    
Ответить на тему

Текущее время: Сегодня 16:20

Часовой пояс: GMT + 4



Вы не можете начинать темы
Вы не можете отвечать на сообщения
Вы не можете редактировать свои сообщения
Вы не можете удалять свои сообщения
Вы не можете голосовать в опросах
Вы не можете прикреплять файлы к сообщениям
Вы не можете скачивать файлы