Воин / Warrior (Сезон 1 , Серия 1-10 из 10) ( Лони Перистер, Лин Одинг) [2019,Боевик, драма, история,WEB-DLRip 1080p] [LostFilm+Кириллица+AlexFilm+ENG]+[Subs Rus , ENG]

Ответить на тему
 
Автор Сообщение

Nikolai.Baranov ®

Пол:

Стаж: 2 года

Сообщений: 84

Откуда: Красногорск

Пост Пост: #1 от 10-Апр-2019 14:52

[Цитировать]

-- --Воин / Warrior Сезон 1 , Серия 1-10 из 10 - Полный Комплект-- --Год выпуска: 2019
Выпущено: США , Bruce Lee Entertainment, Cinemax, Perfect Storm Entertainment, Tropper / Schickler Productions
Жанр:Боевик, драма, история
Продолжительность:01:00:00
Сезон: 1
Серия:1-10
Количество серий в сезоне:10--Озвучка #1: Профессиональный многоголосый - LostFilm - Русский
Озвучка #2: Профессиональный многоголосый - Кириллица - Русский
Озвучка #3: Профессиональный многоголосый - AlexFilm - Русский
Озвучка #4: Профессиональный многоголосый -Английский - Оригинал
Субтитры: Russian , English, English SDH
--Релиз Без Рекламы - ВНИМАНИЕ! В сериале Ненормативная лексика --MDB --Режиссеры:
Лони Перистер, Лин Одинг, Дэвид Петрарка, Асаф Бернштейн, Кевин Танчароэн--В ролях: : Джейсон Дж. Тобин, Эндрю Кодзи, Оливия Ченг, Киран Бью, Дайян Доан, Дин Джаггер III, Лэнгли Кирквуд, Перри Юнг, Райан Крюгер, Рич Тинг-- Сериал основан на оригинальной идее Брюса Ли. В 1890-х годах город Сан-Франциско страдал от коррупции и мафии. В китайском квартале Сан-Франциско междоусобные войны достигли особого размаха. В это неспокойное время в город из Китая прибывает молодой мастер восточных единоборств А Сам (Ah Sahm). Молодой человек тут же оказывается втянутым в кровавые разборки между двумя опасными соперничающими друг с другом группировками Тонг в Чайнатауне. А Сам подвергает себя смертельной опасности, после того как план мести, который он готовил не один год, становится известен его врагам.-- --Качество :WEB-DLRip 1080p
Формат: MKV
Видео кодек: H264
Видео: 6762Кбит/сек,1920х1080(16.9),в 23.976кадр/сек,AVC (High@L4)(CABAC/4 Ref Frames)--Аудио Кодек:AC3
Аудио #1:AC3 640 Kbps, 48.0 KHz, 6 ch- Lostfilm -Русский
Аудио #2:AC3 640 Kbps, 48.0 KHz, 6 ch- Кириллица -Русский
Аудио #3:AC3 384 Kbps, 48.0 KHz, 6 ch-AlexFilm -Русский
Аудио #4: AC3, 640 Kbps, 48.0 KHz,6 ch - - English - Оригинал--

Доп. информация:

Звуковая дорожка сделана путем наложения чистого голоса озвучивателей на центральный канал оригинальной дорожки. Качество идентично звуковой дорожке.
--

Список эпизодов сезона


1 сезон 1 серия - Батраку неймётся - The Itchy Onion
1 сезон 2 серия - Нету в Библии Китая - There's No China in the Bible
1 сезон 3 серия Джон Китаец - John Chinaman
1 сезон 4 серия - Белая гора - The White Mountain
1 сезон 5 серия - Кровь с д*рьмом - The Blood and the Sh*t
1 сезон 6 серия - Разжевали, выплюнули и растоптали - Chewed Up, Spit Out, and Stepped On
1 сезон 7 серия - Тигр и лис - The Tiger and the Fox
1 сезон 8 серия - Нам платят недостаточно, чтобы думать - They Don't Pay Us Enough to Think
1 сезон 9 серия - Китайский бокс - Chinese Boxing
1 сезон 10 серия - Если кланяться, то в ноги - If You're Going to Bow, Bow Low
--

MediaInfo сезона

Общее
Уникальный идентификатор : 243831984565457985903063672975174637478 (0xB77055010EEBED2382BC20F1436F97A6)
Полное имя : C:\Users\Russian Patriot\Downloads\ВОИН - Warrior\Warrior_2019_S01_Н264_DD5.1_N.B_HD_1080_2хRus_Eng\Warrior_2019_S01E01_Н264_DD5.1_N.B_HD_1080_2хRus_Eng.mkv
Формат : Matroska
Версия формата : Version 4
Размер файла : 3,69 Гбайт
Продолжительность : 1 ч. 0 м.
Общий поток : 8684 Кбит/сек
Название фильма : Warrior 2019 S01E01 @ Nikolai.Baranov & PIRATIYA
Дата кодирования : UTC 2019-04-10 09:24:38
Программа кодирования : mkvmerge v32.0.0 ('Astral Progressions') 64-bit
Библиотека кодирования : libebml v1.3.7 + libmatroska v1.5.0
Видео
Идентификатор : 1
Формат : AVC
Формат/Информация : Advanced Video Codec
Профиль формата : High@L4
Настройки формата : CABAC / 4 Ref Frames
Параметр CABAC формата : Да
Параметр RefFrames формата : 4 кадра
Идентификатор кодека : V_MPEG4/ISO/AVC
Продолжительность : 1 ч. 0 м.
Вид битрейта : Постоянный
Битрейт : 6762 Кбит/сек
Номинальный битрейт : 10000 Кбит/сек
Ширина : 1920 пикселей
Высота : 1080 пикселей
Соотношение сторон : 16:9
Режим частоты кадров : Постоянный
Частота кадров : 23,976 (24000/1001) кадра/сек
Цветовое пространство : YUV
Субдискретизация насыщенности : 4:2:0
Битовая глубина : 8 бит
Тип развёртки : Прогрессивная
Бит/(Пиксели*Кадры) : 0.136
Размер потока : 2,88 Гбайт (78%)
Заголовок : Warrior_2019_S01E01_Н264_DD5.1_N.B_HD_1080_2хRus_Eng
Язык : Russian
Default : Да
Forced : Нет
Цветовой диапазон : Limited
Основные цвета : BT.709
Характеристики трансфера : BT.709
Коэффициенты матрицы : BT.709
Аудио #1
Идентификатор : 6
Формат : AC-3
Формат/Информация : Audio Coding 3
Коммерческое название : Dolby Digital
Идентификатор кодека : A_AC3
Продолжительность : 1 ч. 0 м.
Вид битрейта : Постоянный
Битрейт : 640 Кбит/сек
Каналы : 6 каналов
Channel layout : L R C LFE Ls Rs
Частота : 48,0 КГц
Частота кадров : 31,250 кадров/сек (1536 SPF)
Битовая глубина : 16 бит
Метод сжатия : С потерями
Размер потока : 279 Мбайт (7%)
Заголовок : MVO Кириллица @DD5.1 AC3, 640 Kbps, 48.0 KHz, 6 ch
Язык : Russian
ServiceKind/String : Complete Main
Default : Да
Forced : Нет
Аудио #2
Идентификатор : 7
Формат : AC-3
Формат/Информация : Audio Coding 3
Коммерческое название : Dolby Digital
Идентификатор кодека : A_AC3
Продолжительность : 1 ч. 0 м.
Вид битрейта : Постоянный
Битрейт : 640 Кбит/сек
Каналы : 6 каналов
Channel layout : L R C LFE Ls Rs
Частота : 48,0 КГц
Частота кадров : 31,250 кадров/сек (1536 SPF)
Битовая глубина : 16 бит
Метод сжатия : С потерями
Размер потока : 279 Мбайт (7%)
Заголовок : MVO LostFilm @DD5.1 AC3, 640 Kbps, 48.0 KHz, 6 ch
Язык : Russian
ServiceKind/String : Complete Main
Default : Нет
Forced : Нет
Аудио #3
Идентификатор : 8
Формат : AC-3
Формат/Информация : Audio Coding 3
Коммерческое название : Dolby Digital
Идентификатор кодека : A_AC3
Продолжительность : 1 ч. 0 м.
Вид битрейта : Постоянный
Битрейт : 640 Кбит/сек
Каналы : 6 каналов
Channel layout : L R C LFE Ls Rs
Частота : 48,0 КГц
Частота кадров : 31,250 кадров/сек (1536 SPF)
Битовая глубина : 16 бит
Метод сжатия : С потерями
Размер потока : 279 Мбайт (7%)
Заголовок : Original@DD5.1 AC3 ,640 Kbps, 48.0 KHz, 6 ch
Язык : English
ServiceKind/String : Complete Main
Default : Нет
Forced : Нет
Текст #1
Идентификатор : 2
Формат : UTF-8
Идентификатор кодека : S_TEXT/UTF8
Идентификатор кодека/Информация : UTF-8 Plain Text
Продолжительность : 34 м. 31 с.
Битрейт : 6 бит/сек
ElementCount : 29
Размер потока : 1,61 Кбайт (0%)
Заголовок : Rus - Forced
Язык : Russian
Default : Да
Forced : Нет
Текст #2
Идентификатор : 3
Формат : UTF-8
Идентификатор кодека : S_TEXT/UTF8
Идентификатор кодека/Информация : UTF-8 Plain Text
Продолжительность : 59 м. 33 с.
Битрейт : 71 бит/сек
ElementCount : 693
Размер потока : 31,2 Кбайт (0%)
Заголовок : Rus
Язык : Russian
Default : Нет
Forced : Нет
Текст #3
Идентификатор : 4
Формат : UTF-8
Идентификатор кодека : S_TEXT/UTF8
Идентификатор кодека/Информация : UTF-8 Plain Text
Продолжительность : 1 ч. 0 м.
Битрейт : 54 бит/сек
ElementCount : 1004
Размер потока : 24,1 Кбайт (0%)
Заголовок : -Original - SDH
Язык : English
Default : Нет
Forced : Нет
Текст #4
Идентификатор : 5
Формат : UTF-8
Идентификатор кодека : S_TEXT/UTF8
Идентификатор кодека/Информация : UTF-8 Plain Text
Продолжительность : 57 м. 33 с.
Битрейт : 48 бит/сек
ElementCount : 719
Размер потока : 20,3 Кбайт (0%)
Заголовок : -Original
Язык : English
Default : Нет
Forced : Нет
Меню
00:00:00.000 : :Глава 01 / :Глава 01 / :Глава 01 / :Глава 01 / :Глава 01 / :Глава 01 / :Глава 01 / :Глава 01
--

Скриншоты

-- --

Как закачать отдельный файл

1. Открыть торрент
2. Снять галки с тех файлов торрента, которые мы не хотим закачивать. Оставляем только на нужных нам файлах (файле).
3. Нажать О.К.
В клиенте utorrent
Инструкция
1) Открыть торрент

2) Снять галки с тех файлов торрента, которые мы не хотим закачивать:
* либо вручную, снимая с каждого файла галку( скрин №1)
* либо, нажав кнопку "Снять метки (Select None)", сняв сразу со всех файлов(скрин №2)
№1

№2

Оставляем только на нужных нам файлах (файле).

3)Нажать О.К
-- -- --Внимание!!! 12.06. 2019. РАЗДАЧА ОБНОВЛЕНА. ДОБАВЛЕНА -10- СЕРИЯ. ЗВУКОВАЯ ДОРОЖКА AlexFilm. ФИНАЛ СЕЗОНА. ОБНОВИТЕ ТОРЕНТ ФАЙЛ. ПРИЯТНОГО ПРОСМОТРА . Поблагодарить:
ЯД: 410017546713876
--Релиз от: Nikolai.Baranov & PIRATIYA -- -- -- --Время раздачи : 24/7--
Скачать

Скачать торрент!

Как скачивать? · Что такое торрент? · Рейтинг и ограничения

Сайт не распространяет и не хранит электронные версии произведений, а лишь предоставляет доступ к создаваемому пользователями каталогу ссылок на торрент-файлы, которые содержат только списки хеш-сумм

загрузка...

_________________

Легко быть оптимистом, когда судьба не валит с ног тяжелыми ударами, а лишь иногда легонько шлепает по заднице.
[Профиль] [ЛС]
Показать сообщения:    
Ответить на тему

Текущее время: Сегодня 12:13

Часовой пояс: GMT + 4



Вы не можете начинать темы
Вы не можете отвечать на сообщения
Вы не можете редактировать свои сообщения
Вы не можете удалять свои сообщения
Вы не можете голосовать в опросах
Вы не можете прикреплять файлы к сообщениям
Вы не можете скачивать файлы