Знакомство с Факерами 2 / Little Fockers (Пол Вайц / Paul Weitz) [2010, Комедия, DVDScreener] DUB original eng

Ответить на тему
 
Автор Сообщение

user ®

Стаж: 11 лет

Сообщений: 15151

Пост Пост: #1 от 16-Фев-2011 01:26

[Цитировать]

Знакомство с Факерами 2 / Little Fockers- Страна: США
Жанр: Комедия
Год выпуска: 2010
Продолжительность: 01:38:42
Перевод: Профессиональный (дублированный) (Звук с ЭКРАНКИ - TS)
Cубтитры: нет
Оригинальная аудиодорожка: английский
Режиссер: Пол Вайц / Paul Weitz
В ролях: Роберт Де Ниро / Robert De Niro, Бен Стиллер / Ben Stiller, Оуэн Уилсон / Owen Wilson, Тери Поло / Teri Polo, Блайт Даннер / Blythe Danner, Джессика Альба / Jessica Alba, Дастин Хоффман / Dustin Hoffman, Барбра Стрейзанд / Barbra Streisand, Лора Дерн / Laura Dern, Харви Кейтель / Harvey Keitel
Описание: 10 лет, двое детей и бесчисленные испытания понадобились Грегу для того, чтобы тесть частично примирился с его существованием. Но после того как Грег, оказавшись на мели, находит себе халтуру в фармацевтической компании, подозрения Джека увеличиваются в геометрической прогрессии. Когда все семейство Грега и Пэм, включая ее бывшего возлюбленного Кевина, соберутся на день рождения близнецов, Грегу придется доказать скептично настроенному Джеку, что он настоящий хозяин в доме. Недоразумения, слежка, миссии под прикрытием — как все это поможет Грегу пройти последнее испытание и стать новым главой семьи? Или возникшее между родственниками доверие будет подорвано… к лучшему?
Качество видео: DVDScreener
Формат видео: AVI
Видео: Xvid 720x352 23.98fps 1789Kbps
Русский Дубляж: Dolby AC3 48000Hz stereo 256Kbps
Английский: Dolby AC3 48000Hz stereo 224Kbps

MediaInfo

General
Complete name : Little Fockers.RUS (DUB).ENG.DVDScr.TS-VEGA.avi
Format : AVI
Format/Info : Audio Video Interleave
File size : 1.56 GiB
Duration : 1h 38mn
Overall bit rate : 2 259 Kbps
Writing application : VirtualDubMod 1.5.10.1 (build 2366/release)
Writing library : VirtualDubMod build 2366/release
Video
Format : MPEG-4 Visual
Format profile : Streaming Video@L1
Format settings, BVOP : Yes
Format settings, QPel : No
Format settings, GMC : No warppoints
Format settings, Matrix : Default
Codec ID : XVID
Codec ID/Hint : XviD
Duration : 1h 38mn
Bit rate : 1 789 Kbps
Width : 720 pixels
Height : 352 pixels
Display aspect ratio : 2.045
Frame rate : 23.976 fps
Resolution : 24 bits
Colorimetry : 4:2:0
Scan type : Progressive
Bits/(Pixel*Frame) : 0.294
Stream size : 1.23 GiB (79%)
Writing library : XviD 50
Audio
Format : AC-3
Format/Info : Audio Coding 3
Codec ID : 2000
Duration : 1h 33mn
Bit rate mode : Constant
Bit rate : 256 Kbps
Channel(s) : 2 channels
Channel positions : L R
Sampling rate : 48.0 KHz
Stream size : 172 MiB (11%)
Alignment : Split accross interleaves
Interleave, duration : 44 ms (1.05 video frame)
Interleave, preload duration : 500 ms
Title : RUS DUB (TS)
Audio
Format : AC-3
Format/Info : Audio Coding 3
Codec ID : 2000
Duration : 1h 33mn
Bit rate mode : Constant
Bit rate : 224 Kbps
Channel(s) : 2 channels
Channel positions : L R
Sampling rate : 48.0 KHz
Stream size : 150 MiB (9%)
Alignment : Split accross interleaves
Interleave, duration : 44 ms (1.05 video frame)
Interleave, preload duration : 500 ms
Title : ENG DD2.0

Скриншот c названием фильма

Скриншоты

-В Самом фильме присутствуют непереведеные моменты но они буквально 1-1.5 секунды и их максимум 3-4 места всего. На Данную продолжительность пока нет полного перевода. Картинка хорошая и НЕ ЗАМАЗАННАЯ. В Центре экрана целый фильм стоит Ватермарк JH. Но он не мешает просмотру.-СЭМПЛЫ из разных мест в фильме: НАЧАЛО Середина Конец
Скачать

Скачать торрент! Знакомство с Факерами 2 / Little Fockers (Пол Вайц / Paul Weitz) [2010, Комедия, DVDScreener] DUB original eng

Как скачивать? · Что такое торрент? · Рейтинг и ограничения

Сайт не распространяет и не хранит электронные версии произведений, а лишь предоставляет доступ к создаваемому пользователями каталогу ссылок на торрент-файлы, которые содержат только списки хеш-сумм

[Профиль] [ЛС]
Показать сообщения:    
Ответить на тему

Текущее время: Сегодня 22:36

Часовой пояс: GMT + 4



Вы не можете начинать темы
Вы не можете отвечать на сообщения
Вы не можете редактировать свои сообщения
Вы не можете удалять свои сообщения
Вы не можете голосовать в опросах
Вы не можете прикреплять файлы к сообщениям
Вы не можете скачивать файлы