Викинги / Vikings (Сезон 5, Серия 1-20 из 20) (Киаран Доннелли, Йохан Ренк) [2017-2019,Историческая драма, приключения, боевик, викинги ,,WEB-DLRip 1080p] [LostFilm+Eng]+[Subs Rus , ENG]

Ответить на тему
 
Автор Сообщение

Nikolai.Baranov ®

Пост Пост: #1 от 19-Янв-2019 18:40

[Цитировать]

-- --Викинги / Vikings Сезон 5, Серия 1-20 из 20 - Полный Комплект-- --Год выпуска: 2017 - 2019
Выпущено: Ирландия, Канада, Irish Film Board, Shaw Media, Take 5 Productions, World 2000 Entertainment
Жанр: Историческая драма, приключения, боевик, викинги
Продолжительность: 00:44:00
Сезон:5
Серия: 1-20
Количество серий в сезоне: 20--Озвучка : Профессиональный многоголосый -LostFilm -Русский
Озвучка : Профессиональный многоголосый - Английский - Оригинал
Субтитры: : Русские,Английские --Релиз Без Рекламы --Официальный сайт
--Режиссер: Киаран Доннелли, Йохан Ренк, Кен Джиротти--Сценаристы::Майкл Херст--В ролях: Трэвис Фиммел, Клайв Стэнден, Кэтрин Уинник, Гэбриел Бирн, Джессалин Гилсиг, Густаф Скарсгард, Джефферсон Холл, Джордж Благден, Тадж Мерфи, Диармэйд Мурта, Нэйтан О`Тул, Руби О`Лири, Джон Кэвэна, Сэм Лукас Смит, Гайя Вайсс, Александр Людвиг-- Исторический сериал «Викинги» от создателя «Тюдоров» и продюсера «Камелота» и «Борджиа» Майкла Херста расскажет о путешествиях легендарного героя скандинавских саг Рагнара Лодброка, а также о превращении молодого викинга в мудрого правителя, которого сравнивали с самим богом войны Одином. Проект канала History может похвастаться яркими персонажами, красивыми натурными съемками и эпичными батальными сценами.

Сюжет:Молодой фермер Рагнар Лодброк (Трэвис Фиммел), мечтающий о походе на Запад, выступает против воли местного правителя викингов, предпочитающего безопасные набеги на бедные соседние земли. Заручившись поддержкой своей семьи, герой принимает решение ослушаться приказа, тем самым разделив своих сородичей на два противоборствующих лагеря. С помощью искусного мастера Рагнар берется за строительство быстроходного корабля. С отрядом преданных бойцов викинг готов совершить нападение на сулящие несметные богатства земли англосаксов. Его легендарное путешествие в Британию будет воспето в мифах и преданиях…-- --Качество :WEB-DLRip 1080p
Формат: MKV
Видео кодек: H264
Видео: 7226Кбит/сек,1920х1080(16.9),в 23.976кадр/сек,AVC (High@L4)(CABAC/4 Ref Frames)--Аудио Кодек:AC3
Аудио #6:AC3 , 384 Kbps, 48.0 KHz, 6 ch- -LostFilm -Русский
Аудио #8: AC3, 384 Kbps, 48.0 KHz,6 ch - - English - Оригинал-- --

Доп. информация:

Звуковая дорожка сделана путем наложения чистого голоса озвучивателей на центральный канал оригинальной дорожки. Качество идентично звуковой дорожке.
--

Список эпизодов сезона


5 сезон 1 серия - Прощание. Часть 1 - The Departed (1)
5 сезон 2 серия - Прощание. Часть 2 - The Departed (2)
5 сезон 3 серия - Родной край - Homeland
5 сезон 4 серия - План - The Plan
5 сезон 5 серия - Пленник - The Prisoner
5 сезон 6 серия - Послание - The Message
5 сезон 7 серия - Полная луна - Full Moon
5 сезон 8 серия - Насмешка - The Joke
5 сезон 9 серия - Простая история - A Simple Story
5 сезон 10 серия - Минуты прозрения - Moments of Vision
5 сезон 11 серия - Откровение - The Revelation
5 сезон 12 серия - Самое гнусное убийство - Murder Most Foul
5 сезон 13 серия - Новый бог - A New God
5 сезон 14 серия - Утраченная возможность - The Lost Moment
5 сезон 15 серия - Ад - Hell
5 сезон 16 серия - Будда - The Buddha
5 сезон 17 серия - Самое ужасное - The Most Terrible Thing
5 сезон 19 серия - Что случилось в пещере - What Happens in the Cave
5 сезон 18 серия - Бальдр - Baldur
5 сезон 19 серия - Что случилось в пещере - What Happens in the Cave
5 сезон 20 серия - Рагнарок - Ragnarok
--

MediaInfo сезона

Общее
Уникальный идентификатор : 219585120445774909548548811328693720372 (0xA5328E4E34EA737AB4CB07D4C5AFD534)
Полное имя : E:\Nikolai.Baranov & PIRATIYA\Викинги - Vikings\Vikings_S05_N.B_HD_1080_LostFilm_Rus_Eng\Vikings_S05E18_Н264_DD5.1_N.B_HD_1080_LostFilm_Rus_Eng.mkv
Формат : Matroska
Версия формата : Version 4
Размер файла : 2,54 Гбайт
Продолжительность : 45 м. 27 с.
Общий поток : 7996 Кбит/сек
Название фильма : Vikings 2019 S05Е18 @ Nikolai.Baranov & PIRATIYA
Дата кодирования : UTC 2019-01-19 08:59:52
Программа кодирования : mkvmerge v30.1.0 ('Forever And More') 64-bit
Библиотека кодирования : libebml v1.3.6 + libmatroska v1.4.9
Видео
Идентификатор : 1
Формат : AVC
Формат/Информация : Advanced Video Codec
Профиль формата : High@L4
Настройки формата : CABAC / 4 Ref Frames
Параметр CABAC формата : Да
Параметр RefFrames формата : 4 кадра
Идентификатор кодека : V_MPEG4/ISO/AVC
Продолжительность : 45 м. 27 с.
Вид битрейта : Постоянный
Битрейт : 7226 Кбит/сек
Номинальный битрейт : 10000 Кбит/сек
Ширина : 1920 пикселей
Высота : 1080 пикселей
Соотношение сторон : 16:9
Режим частоты кадров : Постоянный
Частота кадров : 23,976 (24000/1001) кадра/сек
Цветовое пространство : YUV
Субдискретизация насыщенности : 4:2:0
Битовая глубина : 8 бит
Тип развёртки : Прогрессивная
Бит/(Пиксели*Кадры) : 0.145
Размер потока : 2,29 Гбайт (90%)
Заголовок : Vikings_S05E18_Н264_DD5.1_N.B_HD_1080_LostFilm_Rus_Eng
Язык : Russian
Default : Да
Forced : Нет
Цветовой диапазон : Limited
Основные цвета : BT.709
Характеристики трансфера : BT.709
Коэффициенты матрицы : BT.709
Аудио #1
Идентификатор : 5
Формат : AC-3
Формат/Информация : Audio Coding 3
Коммерческое название : Dolby Digital
Идентификатор кодека : A_AC3
Продолжительность : 45 м. 26 с.
Вид битрейта : Постоянный
Битрейт : 384 Кбит/сек
Каналы : 6 каналов
Channel layout : L R C LFE Ls Rs
Частота : 48,0 КГц
Частота кадров : 31,250 кадров/сек (1536 SPF)
Битовая глубина : 16 бит
Метод сжатия : С потерями
Размер потока : 125 Мбайт (5%)
Заголовок : MVO LostFilm @DD5.1 AC3, 384 Kbps, 48.0 KHz, 6 ch
Язык : Russian
ServiceKind/String : Complete Main
Default : Да
Forced : Нет
Аудио #2
Идентификатор : 6
Формат : AC-3
Формат/Информация : Audio Coding 3
Коммерческое название : Dolby Digital
Идентификатор кодека : A_AC3
Продолжительность : 45 м. 27 с.
Вид битрейта : Постоянный
Битрейт : 384 Кбит/сек
Каналы : 6 каналов
Channel layout : L R C LFE Ls Rs
Частота : 48,0 КГц
Частота кадров : 31,250 кадров/сек (1536 SPF)
Битовая глубина : 16 бит
Метод сжатия : С потерями
Размер потока : 125 Мбайт (5%)
Заголовок : Original@DD5.1 AC3 ,384 Kbps, 48.0 KHz, 6 ch
Язык : English
ServiceKind/String : Complete Main
Default : Нет
Forced : Нет
Текст #1
Идентификатор : 2
Формат : UTF-8
Идентификатор кодека : S_TEXT/UTF8
Идентификатор кодека/Информация : UTF-8 Plain Text
Продолжительность : 43 м. 33 с.
Битрейт : 64 бит/сек
ElementCount : 461
Размер потока : 20,5 Кбайт (0%)
Заголовок : Rus-Amedia
Язык : Russian
Default : Да
Forced : Нет
Текст #2
Идентификатор : 3
Формат : UTF-8
Идентификатор кодека : S_TEXT/UTF8
Идентификатор кодека/Информация : UTF-8 Plain Text
Продолжительность : 44 м. 27 с.
Битрейт : 45 бит/сек
ElementCount : 605
Размер потока : 14,9 Кбайт (0%)
Заголовок : Original - SDH
Язык : English
Default : Нет
Forced : Нет
Текст #3
Идентификатор : 4
Формат : UTF-8
Идентификатор кодека : S_TEXT/UTF8
Идентификатор кодека/Информация : UTF-8 Plain Text
Продолжительность : 41 м. 37 с.
Битрейт : 40 бит/сек
ElementCount : 503
Размер потока : 12,4 Кбайт (0%)
Заголовок : Original
Язык : English
Default : Нет
Forced : Нет
Меню
00:00:00.000 : :Глава 01 / :Глава 01 / :Глава 01 / :Глава 01 / :Глава 01 / :Глава 01
-- -- --

Как закачать отдельный файл

1. Открыть торрент
2. Снять галки с тех файлов торрента, которые мы не хотим закачивать. Оставляем только на нужных нам файлах (файле).
3. Нажать О.К.
В клиенте utorrent
Инструкция
1) Открыть торрент

2) Снять галки с тех файлов торрента, которые мы не хотим закачивать:
* либо вручную, снимая с каждого файла галку( скрин №1)
* либо, нажав кнопку "Снять метки (Select None)", сняв сразу со всех файлов(скрин №2)
№1

№2

Оставляем только на нужных нам файлах (файле).

3)Нажать О.К
-- -- --Внимание!!! 02.02. 2019. РАЗДАЧА ОБНОВЛЕНА. ДОБАВЛЕНА -20- СЕРИЯ. ФИНАЛ СЕЗОНА. ОБНОВИТЕ ТОРЕНТ ФАЙЛ. ПРИЯТНОГО ПРОСМОТРА . Поблагодарить:
ЯД: 410017546713876
--Релиз от: Nikolai.Baranov & PIRATIYA -- -- -- --Время раздачи : 24/7--
Скачать

Скачать торрент! Викинги / Vikings (Сезон 5, Серия 1-20 из 20) (Киаран Доннелли, Йохан Ренк) [2017-2019,Историческая драма, приключения, боевик, викинги ,,WEB-DLRip 1080p] [LostFilm+Eng]+[Subs Rus , ENG]

Как скачивать? · Что такое торрент? · Рейтинг и ограничения

Сайт не распространяет и не хранит электронные версии произведений, а лишь предоставляет доступ к создаваемому пользователями каталогу ссылок на торрент-файлы, которые содержат только списки хеш-сумм

 
Показать сообщения:    
Ответить на тему

Текущее время: Сегодня 12:55

Часовой пояс: GMT + 4



Вы не можете начинать темы
Вы не можете отвечать на сообщения
Вы не можете редактировать свои сообщения
Вы не можете удалять свои сообщения
Вы не можете голосовать в опросах
Вы не можете прикреплять файлы к сообщениям
Вы не можете скачивать файлы