Боунхилл Роуд / Bonehill Road (2017) DVDRip [MVO]

Ответить на тему
 
Автор Сообщение

Magnat ®

Пол:

Стаж: 5 лет 3 месяца

Сообщений: 420

Откуда: xxxtorrents.pro

Пост Пост: #1 от 10-Ноя-2018 18:24

[Цитировать]

- Боунхилл Роуд / Bonehill Road (2017) DVDRip - Производство: США, Wild Eye / Fuzzy Puppy Filmworks / Lycanthrope MP
Жанр: Ужасы, Триллер
Режиссер: Тодд Шитс
Актеры: Эли ДеДжир, Анна Рохас-Пламберг, Линни Куигли, Милли Фриман и др.
Описание:
Мама и дочка убегают от одной опасной ситуации и сразу попадают в другую. В итоге они оказываются в доме, полном кошмаров, а за его пределами их поджидают страшные чудища. Но что же хуже - то, что снаружи или внутри?
Продолжительность: 01:25:09
Качество видео: DVDRip
Перевод: Многоголосый закадровый, любительский
Субтитры: отсутствуют
Видео: Xvid, 720x400, ~1813 Kbps
Аудио 1: AC3, 2 ch, 192 Kbps | русский
Аудио 2: MP3, 2 ch, 160 Kbps | английский

Mediainfo:

Общее
Полное имя : D:\FILMЬl\Bonehill Road.2017.avi
Формат : AVI
Формат/Информация : Audio Video Interleave
Размер файла : 1,30 Гбайт
Продолжительность : 1 ч. 25 м.
Общий поток : 2179 Кбит/сек
Программа кодирования : VirtualDubMod 1.10.5ru (build 2550/release)
Библиотека кодирования : VirtualDubMod build 2550/release
Видео
Идентификатор : 0
Формат : MPEG-4 Visual
Профиль формата : Simple@L3
Параметр BVOP формата : Нет
Параметр QPel формата : Нет
Параметр GMC формата : Без точки перехода
Параметр матрицы формата : Default (H.263)
Идентификатор кодека : XVID
Идентификатор кодека/Подсказка : XviD
Продолжительность : 1 ч. 25 м.
Битрейт : 1813 Кбит/сек
Ширина : 720 пикселей
Высота : 400 пикселей
Соотношение сторон : 16:9
Частота кадров : 23,976 (24000/1001) кадра/сек
Цветовое пространство : YUV
Субдискретизация насыщенности : 4:2:0
Битовая глубина : 8 бит
Тип развёртки : Прогрессивная
Метод сжатия : С потерями
Бит/(Пиксели*Кадры) : 0.263
Размер потока : 1,08 Гбайт (83%)
Библиотека кодирования : XviD 1.1.2 (UTC 2006-11-01)
Аудио #1
Идентификатор : 1
Формат : AC-3
Формат/Информация : Audio Coding 3
Коммерческое название : Dolby Digital
Идентификатор кодека : 2000
Продолжительность : 1 ч. 25 м.
Вид битрейта : Постоянный
Битрейт : 192 Кбит/сек
Каналы : 2 канала
Channel layout : L R
Частота : 48,0 КГц
Частота кадров : 31,250 кадров/сек (1536 SPF)
Битовая глубина : 16 бит
Метод сжатия : С потерями
Размер потока : 117 Мбайт (9%)
Выравнивание : Разделение по промежуткам
Продолжительность промежутка : 42 мс. (1,00 видеокадр)
Время предзагрузки промежутка : 500 мс.
ServiceKind/String : Complete Main
Аудио #2
Идентификатор : 2
Формат : MPEG Audio
Версия формата : Version 1
Профиль формата : Layer 3
Настройки формата : Joint stereo / MS Stereo
Идентификатор кодека : 55
Идентификатор кодека/Подсказка : MP3
Продолжительность : 1 ч. 25 м.
Вид битрейта : Постоянный
Битрейт : 160 Кбит/сек
Каналы : 2 канала
Частота : 48,0 КГц
Метод сжатия : С потерями
Размер потока : 97,5 Мбайт (7%)
Выравнивание : Разделение по промежуткам
Продолжительность промежутка : 42 мс. (1,00 видеокадр)
Время предзагрузки промежутка : 500 мс.
Библиотека кодирования : LAME3.98
Скриншоты:
Скачать

Скачать торрент! Боунхилл Роуд / Bonehill Road (2017) DVDRip [MVO]

Как скачивать? · Что такое торрент? · Рейтинг и ограничения

Сайт не распространяет и не хранит электронные версии произведений, а лишь предоставляет доступ к создаваемому пользователями каталогу ссылок на торрент-файлы, которые содержат только списки хеш-сумм

загрузка...

_________________
ПУСТЬ ВАС НЕ СМУЩАЕТ ОТСУТСТВИЕ СИДОВ НА МОИХ РАЗДАЧАХ, РАЗДАЧИ МУЛЬТИТРЕКЕРНЫЕ СИДЫ (Раздающие) по DHT ЕСТЬ ВСЕГДА !!!!
[Профиль] [ЛС]
Показать сообщения:    
Ответить на тему

Текущее время: Сегодня 01:53

Часовой пояс: GMT + 4



Вы не можете начинать темы
Вы не можете отвечать на сообщения
Вы не можете редактировать свои сообщения
Вы не можете удалять свои сообщения
Вы не можете голосовать в опросах
Вы не можете прикреплять файлы к сообщениям
Вы не можете скачивать файлы