Смерть Сталина / The Death of Stalin (2017) BDRip 1080p от Ash61 | L, L2

Ответить на тему
 
Автор Сообщение

Magnat ®

Пол:

Стаж: 5 лет 4 месяца

Сообщений: 420

Откуда: xxxtorrents.pro

Пост Пост: #1 от 10-Ноя-2018 18:19

[Цитировать]

Смерть Сталина
The Death of Stalin

«Тоталитарная комедия в вольной трактовке»
- Страна: Франция, Великобритания, Бельгия (eOne, Gaumont, Quad Productions, Main Journey, France 3 Cinéma, Canal+, Panache Productions, ...)
Жанр: драма, сатира, история
Год выпуска: 2017
Продолжительность: 01:46:34
Озвучки: Любительские многоголосые закадровые и двухголосый закадровый-В ролях:
Стив Бушеми (Хрущёв), Саймон Расселл Бил (Берия), Джеффри Тэмбор (Маленков), Джейсон Айзекс (Жуков), Майкл Пэйлин (Молотов), Дермот Краули (Каганович), Пол Уайтхаус (Микоян), Пол Чахиди (Булганин), Ольга Куриленко (Мария Юдина), Андреа Райзборо (Светлана Сталина), Руперт Френд (Василий Сталин), Адриан Маклафлин (Иосиф Сталин), Пэдди Консидайн (тов. Андреев), Джеральд Лепковский (Брежнев)-Описание: СССР, 1953 год. Страна трепещет от страха перед одним человеком. 5 марта Генсек умер. Когда уходит великий вождь, наступает время борьбы за власть. Гонка началась!-Доп. информация:
• Прокатное удостоверение в России у фильма было отозвано (по сути - запрещён).
• Все русские дороги улучшены, по сравнению с имеющимися на данный момент в рунете (подробности ниже, под спойлером).
Первая дорога - по тексту официального дубляжа (что очень важно для подобных фильмов), местами с ошибочками.
• Видеоряд англоязычный.
• За украинскую дорогу спасибо whalekilla!

О русских дорожках

Muzoboz
Текст - по официальному дубляжу (местами с ошибочками).
В исходнике: плавающая скорость (процентов на 10!), шумы на уровне голоса, "проглоченные" звуки/слова, местами отсутствует перевод.
1. Вычищены шумы (по мере возможности).
2. Перемонтирована в 5.1 ch.
3. Вставлен перевод на непереведённые места.
4. Сохранён тон (важно, поскольку после синхронизации он бы плавал пропорционально плаванию скорости).-HDRezka Studio
Просто синхронизирована.
В исходнике и имеющихся релизах рассинхрон доходит до 420 мс к концу фильма!-Колобок [редакция v.2]
В исходнике: плавающая скорость (процентов на 10!), шумы на уровне голоса, "проглоченные" звуки/слова.
1. Вычищены шумы (по мере возможности).
2. Перемонтирована в 5.1 ch.
3. Сохранён тон (важно, поскольку после синхронизации он бы плавал пропорционально плаванию скорости).-HiWay Grope
Только удалена реклама.
Канальность и битрейт исходника сохранён (к качеству дороги никаких претензий).--Огибающие дорог из данного релиза и имевшихся в рунете до него:

Знаете ли вы, что...

Политико-сатирический художественный фильм британского режиссёра Армандо Ианнуччи по одноимённому французскому графическому роману (комиксу) 2010 года Фабьена Нури и Тьерри Робена.
При работе над сценарием британские авторы — Армандо Ианнуччи, Дэвид Шнайдер, Иэн Мартин, Питер Феллоуз — использовали повествовательную структуру, созданную Нури и Робеном, и усилили сатирический посыл по сравнению с более серьёзной графической новеллой, сохранив ужас и трагизм истории. По словам Ианнуччи, авторы старались отнестись к историческим событиям с максимальным уважением и с пониманием того, что происходившее с миллионами людей в СССР не было смешно, однако можно использовать комедию для исследования мировоззрения советских политиков и смеяться над «подковёрными интригами этих взрослых людей, которые внезапно ведут себя как дети».
Кинообозреватель «Российской газеты» Валерий Кичин определил жанр фильма как «грубый, но, увы, справедливый трагифарс», и заметил, что осознание того, что в основе гротеска лежит суровая правда, оставляет «чувство шока и бессилия», сравнимое с впечатлением от работ Гойи и Босха, а в сцене смерти вождя обнаружил родство с тем, как она показана в драме (а по определению автора фильма Алексея Германа — трагикомедии) «Хрусталёв, машину!» (1998). Обозреватель «Огонька» Андрей Архангельский считает, что парадоксальным образом именно комедия оказалась способна передать серьёзность и мрачную актуальность описанных событий лучше, чем «серьёзные» антисталинские фильмы, пафос которых невольно возвеличивает Сталина.
Премьера фильма в России состоялась 25 января 2018 года в московском кинотеатре «Пионер», несмотря на то, что выданное фильму 17 января 2018 года Министерством культуры Российской Федерации прокатное удостоверение было отозвано 23 января 2018 года, за два дня до выхода картины в прокат.
Выход фильма на экраны и продажа билетов были приостановлены в Белоруссии. Министерство культуры Республики Беларусь решило предварительно посмотреть фильм и потом принять окончательное решение о его показе и после просмотра разрешило прокат фильма, не выявив фактов нарушения законодательства. Также фильм был разрешён к прокату в Армении, Казахстане и Украине.
Натурные съёмки велись в Лондоне: использовались Блайт-хауз и Александра-палас, и в Киеве: Горсовет стал в фильме зданием НКВД, а павильон Экспоцентра — Домом Союзов.
Речь в фильме идёт об авиакатастрофе в Свердловске, в которой погибла хоккейная команда ВВС Московского военного округа. Надо только заметить, что произошла эта трагедия в 1950 году, то есть за три года до смерти Иосифа Сталина.
Армандо Ианнуччи не хотел, чтобы актёры разговаривали с русским акцентом, потому что это могло отпугнуть зрителей, а мысли об акценте помешали бы актёрам импровизировать на съёмочной площадке.
Страница фильма в Википедии - https://ru.wikipedia.org/wiki/%D0%A1%D0%BC%D0%B5%D1%80%D1%82%D1%8C_%D0%A1%D1%82%D0%B0%D0%BB%D0%B8%D0%BD%D0%B0_(%D1%84%D0%B8%D0%BB%D1%8C%D0%BC)

Награды и номинации

....................Награды:
Премия британского независимого кино 2017 года:
.....Лучший актёр в роли второго плана: Саймон Рассел Бил (Берия)
.....Лучший кастинг: Сара Кроу
.....Лучший грим: Николь Стаффорд
.....Лучших художник: Кристина Касали
Кинофестиваль в Турине (2017): премия Международной федерации кинопрессы за лучший фильм
.............Номинации:
Международный кинофестиваль в Дубае 2017 года, премия «Cinema of the World»
Международный кинофестиваль в Торонто 2017 года, премия «Platform»
Премия британского независимого кино 2017 года:
.....Лучший фильм
.....Лучшее достижение: Армандо Иануччи
.....Лучший сценарий: Армандо Иануччи, Дэвид Шнайдер и Ян Мартин
.....Лучшая актриса в роли второго плана: Андреа Райсборо (Светлана)
Премия BAFTA 2018 года:
.....Выдающийся британский фильм
.....Лучший адаптированный сценарий
Тип релиза: BDRip 1080p (by Ash61)
Контейнер: MKV
Видео: AVC / 1920х1040p / 24,000 fps / 10 Mbps
Аудио:
#1 - Русский / AC3 / 48 KHz / 5.1 ch / 640 Kbps (MVO - Muzoboz) (монтаж - Ash61)
#2 - Русский / AC3 / 48 KHz / 2 ch / 192 Kbps (MVO - HDRezka Studio)
#3 - Русский / AC3 / 48 KHz / 5.1 ch / 640 Kbps (DVO - Колобок) (монтаж - Ash61)
#4 - Русский / AC3 / 48 KHz / 5.1 ch / 384 Kbps (MVO - HiWay Grope)
#5 - Украинский / AC3 / 48 KHz / 5.1 ch / 384 Kbps (MVO - Line) (перемонтированный в 5.1)
#6 - Английский / AC3 / 48 KHz / 5.1 ch / 640 Kbps (Original - BD EUR)
Субтитры (вшитые softsub SRT):
#1 - Русские Форсированные [для дороги Muzoboz - несколько надписей] (включены по умолчанию)
#2 - Русские Полные (по официальному дубляжу)
#3 - Русские Полные [v.2]
#4 - English Full
#5 - English SDH

UPD 12.03.2018

Кому надо, окультуренный дубляж с CamRip под релизы с блю-рей (AC3 / 2 ch / 192 kbps) - https://cloud.mail.ru/public/8AKh/wL5vGBX5n
Несколько повышена разборчивость речи, в продолжительных паузах между речью вставлены отрезки оригинальной дороги.
За исходники русской дороги большое спасибо Vouk!
И откорректированные русские полные субтитры по официальному дубляжу - https://cloud.mail.ru/public/keLr/SaeGtYh1K

MediaInfo

General
Unique ID : 117185288674897402568638556608835323061 (0x582910CE7151029DB588AC3B2CBB84B5)
Complete name : D:TheDeathOfStalin(2017)BDRip.1080p(4хVO).mkv
Format : Matroska
Format version : Version 4 / Version 2
File size : 9.59 GiB
Duration : 1h 46mn
Overall bit rate : 12.9 Mbps
Movie name : Смерть Сталина / The Death of Stalin (2017)
Encoded date : UTC 2018-03-04 22:56:25
Writing application : mkvmerge v19.0.0 ('Brave Captain') 64-bit
Writing library : libebml v1.3.5 + libmatroska v1.4.8
Video
ID : 1
Format : AVC
Format/Info : Advanced Video Codec
Format profile : High@L4.1
Format settings, CABAC : Yes
Format settings, ReFrames : 4 frames
Codec ID : V_MPEG4/ISO/AVC
Duration : 1h 46mn
Bit rate : 10 000 Kbps
Width : 1 920 pixels
Height : 1 040 pixels
Display aspect ratio : 1.85:1
Frame rate mode : Constant
Frame rate : 24.000 fps
Color space : YUV
Chroma subsampling : 4:2:0
Bit depth : 8 bits
Scan type : Progressive
Bits/(Pixel*Frame) : 0.209
Stream size : 7.44 GiB (78%)
Title : BDRip by Ash61
Writing library : x264 core 146 r2538 121396c
Encoding settings : cabac=1 / ref=4 / deblock=1:-3:-3 / analyse=0x3:0x113 / me=umh / subme=10 / psy=1 / psy_rd=1.00:0.00 / mixed_ref=1 / me_range=32 / chroma_me=1 / trellis=2 / 8x8dct=1 / cqm=0 / deadzone=21,11 / fast_pskip=0 / chroma_qp_offset=-2 / threads=12 / lookahead_threads=2 / sliced_threads=0 / nr=0 / decimate=0 / interlaced=0 / bluray_compat=0 / constrained_intra=0 / bframes=7 / b_pyramid=2 / b_adapt=2 / b_bias=0 / direct=3 / weightb=1 / open_gop=0 / weightp=2 / keyint=250 / keyint_min=24 / scenecut=40 / intra_refresh=0 / rc_lookahead=60 / rc=2pass / mbtree=0 / bitrate=10000 / ratetol=1.0 / qcomp=0.70 / qpmin=0 / qpmax=69 / qpstep=4 / cplxblur=20.0 / qblur=0.5 / vbv_maxrate=40000 / vbv_bufsize=30000 / nal_hrd=none / filler=0 / ip_ratio=1.40 / pb_ratio=1.30 / aq=1:0.70
Language : English
Default : Yes
Forced : No
Audio #1
ID : 2
Format : AC-3
Format/Info : Audio Coding 3
Mode extension : CM (complete main)
Format settings, Endianness : Big
Codec ID : A_AC3
Duration : 1h 46mn
Bit rate mode : Constant
Bit rate : 640 Kbps
Channel(s) : 6 channels
Channel positions : Front: L C R, Side: L R, LFE
Sampling rate : 48.0 KHz
Frame rate : 31.250 fps (1536 spf)
Compression mode : Lossy
Stream size : 488 MiB (5%)
Title : MVO - Muzoboz (текст с официального дубляжа) (редакция дороги - Ash61)
Language : Russian
Default : Yes
Forced : No
Audio #2
ID : 3
Format : AC-3
Format/Info : Audio Coding 3
Mode extension : CM (complete main)
Format settings, Endianness : Big
Codec ID : A_AC3
Duration : 1h 46mn
Bit rate mode : Constant
Bit rate : 192 Kbps
Channel(s) : 2 channels
Channel positions : Front: L R
Sampling rate : 48.0 KHz
Frame rate : 31.250 fps (1536 spf)
Compression mode : Lossy
Stream size : 146 MiB (1%)
Title : MVO - HDrezka Studio
Language : Russian
Default : No
Forced : No
Audio #3
ID : 4
Format : AC-3
Format/Info : Audio Coding 3
Mode extension : CM (complete main)
Format settings, Endianness : Big
Codec ID : A_AC3
Duration : 1h 46mn
Bit rate mode : Constant
Bit rate : 640 Kbps
Channel(s) : 6 channels
Channel positions : Front: L C R, Side: L R, LFE
Sampling rate : 48.0 KHz
Frame rate : 31.250 fps (1536 spf)
Compression mode : Lossy
Stream size : 488 MiB (5%)
Title : DVO - Колобок (редакция Ash61 [v.2])
Language : Russian
Default : No
Forced : No
Audio #4
ID : 5
Format : AC-3
Format/Info : Audio Coding 3
Mode extension : CM (complete main)
Format settings, Endianness : Big
Codec ID : A_AC3
Duration : 1h 46mn
Bit rate mode : Constant
Bit rate : 384 Kbps
Channel(s) : 6 channels
Channel positions : Front: L C R, Side: L R, LFE
Sampling rate : 48.0 KHz
Frame rate : 31.250 fps (1536 spf)
Compression mode : Lossy
Stream size : 293 MiB (3%)
Title : MVO - HiWay Grope
Language : Russian
Default : No
Forced : No
Audio #5
ID : 6
Format : AC-3
Format/Info : Audio Coding 3
Mode extension : CM (complete main)
Format settings, Endianness : Big
Codec ID : A_AC3
Duration : 1h 46mn
Bit rate mode : Constant
Bit rate : 384 Kbps
Channel(s) : 6 channels
Channel positions : Front: L C R, Side: L R, LFE
Sampling rate : 48.0 KHz
Frame rate : 31.250 fps (1536 spf)
Compression mode : Lossy
Stream size : 293 MiB (3%)
Title : MVO - Line (AAA-Sound) [edited]
Language : Ukrainian
Default : No
Forced : No
Audio #6
ID : 7
Format : AC-3
Format/Info : Audio Coding 3
Mode extension : CM (complete main)
Format settings, Endianness : Big
Codec ID : A_AC3
Duration : 1h 46mn
Bit rate mode : Constant
Bit rate : 640 Kbps
Channel(s) : 6 channels
Channel positions : Front: L C R, Side: L R, LFE
Sampling rate : 48.0 KHz
Frame rate : 31.250 fps (1536 spf)
Compression mode : Lossy
Stream size : 488 MiB (5%)
Title : Original - BD EUR
Language : English
Default : No
Forced : No
Text #1
ID : 8
Format : UTF-8
Codec ID : S_TEXT/UTF8
Codec ID/Info : UTF-8 Plain Text
Duration : 1h 14mn
Bit rate : 0 bps
Count of elements : 5
Stream size : 250 Bytes (0%)
Title : Форсированные (для дороги Muzoboz)
Language : Russian
Default : Yes
Forced : No
Text #2
ID : 9
Format : UTF-8
Codec ID : S_TEXT/UTF8
Codec ID/Info : UTF-8 Plain Text
Duration : 1h 38mn
Bit rate : 138 bps
Count of elements : 1714
Stream size : 101 KiB (0%)
Title : Полные (по официальному дубляжу)
Language : Russian
Default : No
Forced : No
Text #3
ID : 10
Format : UTF-8
Codec ID : S_TEXT/UTF8
Codec ID/Info : UTF-8 Plain Text
Duration : 1h 38mn
Bit rate : 142 bps
Count of elements : 1713
Stream size : 103 KiB (0%)
Title : Полные [v.2]
Language : Russian
Default : No
Forced : No
Text #4
ID : 11
Format : UTF-8
Codec ID : S_TEXT/UTF8
Codec ID/Info : UTF-8 Plain Text
Duration : 1h 36mn
Bit rate : 85 bps
Count of elements : 1706
Stream size : 60.6 KiB (0%)
Title : Full
Language : English
Default : No
Forced : No
Text #5
ID : 12
Format : UTF-8
Codec ID : S_TEXT/UTF8
Codec ID/Info : UTF-8 Plain Text
Duration : 1h 39mn
Bit rate : 89 bps
Count of elements : 1842
Stream size : 65.1 KiB (0%)
Title : SDH
Language : English
Default : No
Forced : No
Menu
00:00:00.000 : :1
00:06:38.875 : :2
00:13:02.583 : :3
00:19:53.125 : :4
00:29:06.125 : :5
00:33:58.250 : :6
00:40:22.417 : :7
00:45:28.000 : :8
00:50:35.000 : :9
00:58:40.750 : :10
01:03:23.667 : :11
01:12:31.750 : :12
01:17:42.917 : :13
01:24:49.000 : :14
01:33:33.708 : :15
01:39:25.583 : :16
Скачать

Скачать торрент! Смерть Сталина / The Death of Stalin (2017) BDRip 1080p от Ash61 | L, L2

Как скачивать? · Что такое торрент? · Рейтинг и ограничения

Сайт не распространяет и не хранит электронные версии произведений, а лишь предоставляет доступ к создаваемому пользователями каталогу ссылок на торрент-файлы, которые содержат только списки хеш-сумм

загрузка...

_________________
ПУСТЬ ВАС НЕ СМУЩАЕТ ОТСУТСТВИЕ СИДОВ НА МОИХ РАЗДАЧАХ, РАЗДАЧИ МУЛЬТИТРЕКЕРНЫЕ СИДЫ (Раздающие) по DHT ЕСТЬ ВСЕГДА !!!!
[Профиль] [ЛС]
Показать сообщения:    
Ответить на тему

Текущее время: Сегодня 21:16

Часовой пояс: GMT + 4



Вы не можете начинать темы
Вы не можете отвечать на сообщения
Вы не можете редактировать свои сообщения
Вы не можете удалять свои сообщения
Вы не можете голосовать в опросах
Вы не можете прикреплять файлы к сообщениям
Вы не можете скачивать файлы