Переправа / The Crossing [2018](Сезон 1, Серия 1-11 из 11)(Роб Боумен, Кен Джиротти) [ Фантастика, драма, приключения,WEB-DLRip][1080p][[Dub] +[Lostfilm+Кириллица+Jaskier+ ProfixMedia+NewStudio+OMSKBIRD+Eng]+[Subs ENG+Rus]

Ответить на тему
 
Автор Сообщение

Nikolai.Baranov ®

Пол:

Стаж: 1 год 3 месяца

Сообщений: 19

Откуда: Красногорск

Пост Пост: #1 от 31-Янв-2018 23:48

[Цитировать]

-- --Переправа / The Crossing Сезон 1, Серия 1-11 из 11 -- --Год выпуска: 2018
Выпущено: США , ABC Studios, Jason T. Reed Productions
Жанр: Фантастика, драма, приключения
Продолжительность: 00:42:00
Сезон:1
Серия: 1-11
Количество серий в сезоне: 11--Озвучка 1: -Дублированный -Кириллица- Русский
Озвучка 2: - Профессиональный многоголосый -Lostfilm- Русский
Озвучка 3: Профессиональный многоголосый - NewStudio -Русский
Озвучка4: Профессиональный многоголосый - ProfixMedia -Русский
Озвучка 5: Профессиональный многоголосый - Jaskier -Русский
Озвучка 6: Профессиональный многоголосый - OMSKBIRD -Русский
Озвучка 7: Профессиональный многоголосый - Английский - Оригинал
Субтитры: : Russian, English, English SDH --MDB --Режиссер: Роб Боумен, Кен Джиротти, Джеффри Дж. Хант, Дэвид Фон Энкен--В ролях: Стив Зан, Натали Мартинес, Томми Бастоу, Сандрин Холт, Роб Кэмпбелл, Рик Гомез, Маркис Харрис, Грант Харви, Джей Карнс, Симона Кэссел, Келли Миссал, Люк Родерик, Бэйли Скойе, Люк Камиллери, Аадила Досани, Бернардо Бадилло, Кристиан Майкл Купер, Элла Кэннон-- Волны выбрасывают на промозглый орегонский пляж тела непонятно откуда взявшихся беженцев. Все они прибыли из будущего, в котором сейчас вовсю разворачивается очередная мировая война. В том, чем грозит нашествие, пытается разобраться местный шериф.-- --Качество :WEB-DLRip 1080p
Формат: MKV
Видео кодек: H264
Видео: 10,5МКбит/сек,1920х1080(16.9),в 23.976кадр/сек,AVC (High@L4)(CABAC/4 Ref Frames)--Аудио Кодек:AC3
Аудио #1:AC3 , 384 Kbps, 48.0 KHz, 6 ch- Кириллица -Русский
Аудио #2:AC3 384 Kbps, 48.0 KHz, 6 ch- Lostfilm -Русский
Аудио #3:AC3 , 384 Kbps, 48.0 KHz, 6 ch- NewStudio -Русский
Аудио #4:AC3 , 384 Kbps, 48.0 KHz, 6 ch- ProfixMedia -Русский
Аудио #5:AC3 , 384 Kbps, 48.0 KHz, 6 ch- Jaskier -Русский
Аудио #6:AC3 , 384 Kbps, 48.0 KHz, 6 ch- OMSKBIRD -Русский
Аудио #7: AC3, 640 Kbps, 48.0 KHz,6 ch - - English - Оригинал----

Доп. информация:

Звуковая дорожка сделана путем наложения чистого голоса озвучивателей на центральный канал оригинальной дорожки. Качество идентично звуковой дорожке.
--

Список эпизодов сезона


1 сезон 1 серия -Пилот -Pilot
1 сезон 2 серия - Тень вне времени - A Shadow Out of Time
1 сезон 3 серия - Американский мир - Pax Americana
1 сезон 4 серия - Лик забвения - The Face of Oblivion
1 сезон 5 серия - Десять лет спустя - Ten Years Gone
1 сезон 6 серия - Последнее известное местонахождение - LKA
1 сезон 7 серия - Золотая мечта -Some Dreamers of the Golden Dream
1 сезон 8 серия - Долгое завтра - The Long Morrow
1 сезон 9 серия - Надежда улыбается с порога - Hope Smiles from the Threshold
1 сезон 10 серия - Выбор Андрокла - The Androcles Option
1 сезон 11 серия - Вот имена - These Are the Names
--

MediaInfo сезона

Общее
Уникальный идентификатор : 17016550575641508533291935792437888831 (0xCCD44B7DA7AB7FE0E8FF082772F873F)
Полное имя : C:\Nikolai.Baranov & PIRATIYA\Переправа - The Crossing\THE_CROSSING_S01_Н264_DD5.1_N.B_HD_1080_Dub+MVO_5xRus_Eng\The_Crossing_S01E01_Н264_DD5.1_N.B_HD_1080_6xRus_Eng.mkv
Формат : Matroska
Версия формата : Version 4 / Version 2
Размер файла : 4,02 Гбайт
Продолжительность : 42 м. 44 с.
Режим общего битрейта : Переменный
Общий поток : 13,5 Мбит/сек
Название фильма : The Crossing S01E01 @ Nikolai.Baranov & PIRATIYA
Дата кодирования : UTC 2018-07-28 09:54:33
Программа кодирования : mkvmerge v25.0.0 ('Prog Noir') 64-bit
Библиотека кодирования : libebml v1.3.6 + libmatroska v1.4.9
Видео
Идентификатор : 1
Формат : AVC
Формат/Информация : Advanced Video Codec
Профиль формата : High@L4
Настройки формата : CABAC / 4 Ref Frames
Параметр CABAC формата : Да
Параметр RefFrames формата : 4 кадра
Идентификатор кодека : V_MPEG4/ISO/AVC
Продолжительность : 42 м. 44 с.
Вид битрейта : Переменный
Битрейт : 10,5 Мбит/сек
Максимальный битрейт : 15,0 Мбит/сек
Ширина : 1920 пикселей
Высота : 1080 пикселей
Соотношение сторон : 16:9
Режим частоты кадров : Постоянный
Частота кадров : 23,976 (24000/1001) кадра/сек
Цветовое пространство : YUV
Субдискретизация насыщенности : 4:2:0
Битовая глубина : 8 бит
Тип развёртки : Прогрессивная
Бит/(Пиксели*Кадры) : 0.211
Размер потока : 3,14 Гбайт (78%)
Заголовок : The_Crossing_S01E01_Н264_DD5.1_N.B_HD_1080_6xRus_Eng
Язык : Russian
Default : Да
Forced : Нет
Цветовой диапазон : Limited
Основные цвета : BT.709
Характеристики трансфера : BT.709
Коэффициенты матрицы : BT.709
Аудио #1
Идентификатор : 6
Формат : AC-3
Формат/Информация : Audio Coding 3
Идентификатор кодека : A_AC3
Продолжительность : 42 м. 44 с.
Вид битрейта : Постоянный
Битрейт : 384 Кбит/сек
Каналы : 6 каналов
Расположение каналов : Front: L C R, Side: L R, LFE
Частота : 48,0 КГц
Частота кадров : 31,250 кадров/сек (1536 SPF)
Битовая глубина : 16 бит
Метод сжатия : С потерями
Размер потока : 117 Мбайт (3%)
Заголовок : Dub Кириллица @DD5.1 AC3, 384 Kbps, 48.0 KHz, 6 ch
Язык : Russian
ServiceKind/String : Complete Main
Default : Да
Forced : Нет
Аудио #2
Идентификатор : 7
Формат : AC-3
Формат/Информация : Audio Coding 3
Идентификатор кодека : A_AC3
Продолжительность : 42 м. 44 с.
Вид битрейта : Постоянный
Битрейт : 384 Кбит/сек
Каналы : 6 каналов
Расположение каналов : Front: L C R, Side: L R, LFE
Частота : 48,0 КГц
Частота кадров : 31,250 кадров/сек (1536 SPF)
Битовая глубина : 16 бит
Метод сжатия : С потерями
Размер потока : 117 Мбайт (3%)
Заголовок : MVO LostFilm @DD5.1 AC3, 384 Kbps, 48.0 KHz, 6 ch
Язык : Russian
ServiceKind/String : Complete Main
Default : Нет
Forced : Нет
Аудио #3
Идентификатор : 8
Формат : AC-3
Формат/Информация : Audio Coding 3
Идентификатор кодека : A_AC3
Продолжительность : 42 м. 44 с.
Вид битрейта : Постоянный
Битрейт : 384 Кбит/сек
Каналы : 6 каналов
Расположение каналов : Front: L C R, Side: L R, LFE
Частота : 48,0 КГц
Частота кадров : 31,250 кадров/сек (1536 SPF)
Битовая глубина : 16 бит
Метод сжатия : С потерями
Размер потока : 117 Мбайт (3%)
Заголовок : MVO NewStudio @DD5.1 AC3, 384 Kbps, 48.0 KHz, 6 ch
Язык : Russian
ServiceKind/String : Complete Main
Default : Нет
Forced : Нет
Аудио #4
Идентификатор : 9
Формат : AC-3
Формат/Информация : Audio Coding 3
Идентификатор кодека : A_AC3
Продолжительность : 42 м. 44 с.
Вид битрейта : Постоянный
Битрейт : 384 Кбит/сек
Каналы : 6 каналов
Расположение каналов : Front: L C R, Side: L R, LFE
Частота : 48,0 КГц
Частота кадров : 31,250 кадров/сек (1536 SPF)
Битовая глубина : 16 бит
Метод сжатия : С потерями
Размер потока : 117 Мбайт (3%)
Заголовок : MVO ProfixMedia @DD5.1 AC3, 384 Kbps, 48.0 KHz, 6 ch
Язык : Russian
ServiceKind/String : Complete Main
Default : Нет
Forced : Нет
Аудио #5
Идентификатор : 10
Формат : AC-3
Формат/Информация : Audio Coding 3
Идентификатор кодека : A_AC3
Продолжительность : 42 м. 44 с.
Вид битрейта : Постоянный
Битрейт : 384 Кбит/сек
Каналы : 6 каналов
Расположение каналов : Front: L C R, Side: L R, LFE
Частота : 48,0 КГц
Частота кадров : 31,250 кадров/сек (1536 SPF)
Битовая глубина : 16 бит
Метод сжатия : С потерями
Размер потока : 117 Мбайт (3%)
Заголовок : MVO Jaskier @DD5.1 AC3, 384 Kbps, 48.0 KHz, 6 ch
Язык : Russian
ServiceKind/String : Complete Main
Default : Нет
Forced : Нет
Аудио #6
Идентификатор : 11
Формат : AC-3
Формат/Информация : Audio Coding 3
Идентификатор кодека : A_AC3
Продолжительность : 42 м. 44 с.
Вид битрейта : Постоянный
Битрейт : 384 Кбит/сек
Каналы : 6 каналов
Расположение каналов : Front: L C R, Side: L R, LFE
Частота : 48,0 КГц
Частота кадров : 31,250 кадров/сек (1536 SPF)
Битовая глубина : 16 бит
Метод сжатия : С потерями
Размер потока : 117 Мбайт (3%)
Заголовок : MVO OMSKBIRD @DD5.1 AC3, 384 Kbps, 48.0 KHz, 6 ch
Язык : Russian
ServiceKind/String : Complete Main
Default : Нет
Forced : Нет
Аудио #7
Идентификатор : 12
Формат : AC-3
Формат/Информация : Audio Coding 3
Идентификатор кодека : A_AC3
Продолжительность : 42 м. 44 с.
Вид битрейта : Постоянный
Битрейт : 640 Кбит/сек
Каналы : 6 каналов
Расположение каналов : Front: L C R, Side: L R, LFE
Частота : 48,0 КГц
Частота кадров : 31,250 кадров/сек (1536 SPF)
Битовая глубина : 16 бит
Метод сжатия : С потерями
Размер потока : 196 Мбайт (5%)
Заголовок : Original@DD5.1 AC3 ,640 Kbps, 48.0 KHz, 6 ch
Язык : English
ServiceKind/String : Complete Main
Default : Нет
Forced : Нет
Текст #1
Идентификатор : 2
Формат : ASS
Идентификатор кодека : S_TEXT/ASS
Идентификатор кодека/Информация : Advanced Sub Station Alpha
Продолжительность : 38 м. 8 с.
Битрейт : 0 бит/сек
ElementCount : 5
Метод сжатия : Без потерь
Размер потока : 174 байт (0%)
Заголовок : Rus - Forced
Язык : Russian
Default : Да
Forced : Нет
Текст #2
Идентификатор : 3
Формат : UTF-8
Идентификатор кодека : S_TEXT/UTF8
Идентификатор кодека/Информация : UTF-8 Plain Text
Продолжительность : 40 м. 49 с.
Битрейт : 103 бит/сек
ElementCount : 669
Размер потока : 30,9 Кбайт (0%)
Заголовок : Rus
Язык : Russian
Default : Нет
Forced : Нет
Текст #3
Идентификатор : 4
Формат : UTF-8
Идентификатор кодека : S_TEXT/UTF8
Идентификатор кодека/Информация : UTF-8 Plain Text
Продолжительность : 40 м. 50 с.
Битрейт : 67 бит/сек
ElementCount : 675
Размер потока : 20,1 Кбайт (0%)
Заголовок : Original
Язык : English
Default : Нет
Forced : Нет
Текст #4
Идентификатор : 5
Формат : UTF-8
Идентификатор кодека : S_TEXT/UTF8
Идентификатор кодека/Информация : UTF-8 Plain Text
Продолжительность : 42 м. 30 с.
Битрейт : 69 бит/сек
ElementCount : 826
Размер потока : 21,7 Кбайт (0%)
Заголовок : Original - SDH
Язык : English
Default : Нет
Forced : Нет
Меню
00:00:00.000 : en:Глава 01 / en:Глава 01 / en:Глава 01 / en:Глава 01 / en:Глава 01 / en:Глава 01 / en:Глава 01 / en:Глава 01 / en:Глава 01 / en:Глава 01 / en:Глава 01 / en:Глава 01
-- -- Сезон 1--

Как закачать отдельный файл

1. Открыть торрент
2. Снять галки с тех файлов торрента, которые мы не хотим закачивать. Оставляем только на нужных нам файлах (файле).
3. Нажать О.К.
В клиенте utorrent
Инструкция
1) Открыть торрент

2) Снять галки с тех файлов торрента, которые мы не хотим закачивать:
* либо вручную, снимая с каждого файла галку( скрин №1)
* либо, нажав кнопку "Снять метки (Select None)", сняв сразу со всех файлов(скрин №2)
№1

№2

Оставляем только на нужных нам файлах (файле).

3)Нажать О.К
-- -- --Релиз от: Nikolai.Baranov & PIRATIYA -- -- -- --
Скачать

Скачать торрент!

Как скачивать? · Что такое торрент? · Рейтинг и ограничения

Сайт не распространяет и не хранит электронные версии произведений, а лишь предоставляет доступ к создаваемому пользователями каталогу ссылок на торрент-файлы, которые содержат только списки хеш-сумм

загрузка...

_________________

Легко быть оптимистом, когда судьба не валит с ног тяжелыми ударами, а лишь иногда легонько шлепает по заднице.


Последний раз редактировалось: Nikolai.Baranov (2018-08-30 18:10), всего редактировалось 1 раз
[Профиль] [ЛС]

gokshik01011974

Пол:

Стаж: 6 лет 9 месяцев

Сообщений: 2

Откуда: Россия

Пост Пост: #2 от 03-Фев-2018 11:51 (спустя 2 дня 12 часов)

[Цитировать]

Nikolai.Baranov, а что за ехе файлы в раздаче, для чего они нужны?
[Профиль] [ЛС]
Показать сообщения:    
Ответить на тему

Текущее время: Сегодня 19:33

Часовой пояс: GMT + 4



Вы не можете начинать темы
Вы не можете отвечать на сообщения
Вы не можете редактировать свои сообщения
Вы не можете удалять свои сообщения
Вы не можете голосовать в опросах
Вы не можете прикреплять файлы к сообщениям
Вы не можете скачивать файлы