Хороший доктор / The Good Doctor [2017] (Сезон 1 , Серия 1- 18 из 18) (Сет Гордон) [ Драма, медицина , WEB-DLRip][720p][H264Хороший доктор / The Good Doctor [2017] (Сезон 1 , Серия 1- 18 из 18) (Сет Гор][LostFilm+NewStudiо+BaibaKo+Eng]+[Subs ENG+Rus]

Ответить на тему
 
Автор Сообщение

Nikolai.Baranov ®

Пол:

Стаж: 9 месяцев 6 дней

Сообщений: 40

Откуда: Красногорск

Пост Пост: #1 от 03-Янв-2018 12:34

[Цитировать]

-- --Хороший доктор / The Good Doctor Сезон 1 , Серия 1- 18 из 18-- --Год выпуска: 2017-2018
Выпущено: США , 3AD, EnterMedia Contents, Shore Z Productions, Sony Pictures Television
Жанр: Драма, медицина
Продолжительность: 0 00:44:00
Сезон:1
Серия:1-18
Количество серий в сезоне: 18--Озвучка1: Профессиональный многоголосый - LostFilm -Русский
Озвучка2: Профессиональный многоголосый - NewStudiо -Русский
Озвучка 3: Профессиональный многоголосый -BaibaKo-Русский
Озвучка 4: Профессиональный многоголосый - Английский - Оригинал
Субтитры: : Russian, English SDH --Официальный сайт
--Режиссер:
Сет Гордон--Актеры:
Фредди Хаймор, Николас Гонсалес, Антония Томас, Чуку Моду, Бо Гарретт, Тэмлин Томита, Хилл Харпер, Ричард Шифф, Грэм Верчир, Терил Ротери, Пейдж Спара, Ирен Кэн, Дилан Кингуэлл, Роуз Рейнджер, Адиль Зайди, Кристина Чанг, Джесика Николь, Кэтрин Лок Хэггквист-- История молодого талантливого врача с синдромом саванта, обладающего уникальными способностями — невероятной памятью и фантастической чувствительностью к проблемам, вспыхивающим внутри человеческого организма. Герой становится блестящим хирургом, несмотря на это, в личностном плане его развитие соответствует уровню десятилетнего ребёнка.-- --Качество :WEB-DLRip 720p
Формат: MKV
Видео кодек: H264
Видео: 4333Kбит/сек,1280х720(16.9),в 23.976кадр/сек,AVC (High@L3.1)(CABAC/3 Ref Frames)--Аудио Кодек:AC3
Аудио #1:AC3 ,640 Kbps, 48.0 KHz, 6 ch- LostFilm -Русский
Аудио #2:AC3 , 384 Kbps, 48.0 KHz, 6 ch- NewStudiо -Русский
Аудио #3:AC3 , 384 Kbps, 48.0 KHz, 6 ch- BaibaKo -Русский
Аудио #4: AC3, 640 Kbps, 48.0 KHz,6 ch - - English - Оригинал--

Доп. информация:

Звуковая дорожка сделана путем наложения чистого голоса озвучивателей на центральный канал оригинальной дорожки. Качество идентично звуковой дорожке.
--

Список эпизодов сезона


1 сезон 1 серия - Запах гари - Burnt Food
1 сезон 2 серия - Гора Рашмор - Mount Rushmore
1 сезон 3 серия - Оливер - Oliver
1 сезон 4 серия - Трубы - Pipes
1 сезон 5 серия - Три десятых процента - Point Three Percent
1 сезон 6 серия - Не подделка - Not Fake
1 сезон 7 серия - 22 шага - 22 Steps
1 сезон 8 серия - Яблоко - Apple
1 сезон 9 серия - Нюансы - Intangibles
1 сезон 10 серия - Жертва - Sacrifice
1 сезон 11 серия - Острова. Часть первая - Islands: Part One
1 сезон 12 серия - Острова. Часть вторая - Islands (2)
1 сезон 13 серия - Семь причин - Seven Reasons
1 сезон 14 серия - Она - She
1 сезон 15 серия - От самого сердца - Heartfelt
1 сезон 16 серия - Боль - Pain
1 сезон 17 серия - Улыбка - Smile
1 сезон 18 серия - Больше - More
---

MediaInfo сезона

Общее
Уникальный идентификатор : 133004655247396644485390065450911478095 (0x640FC3CBCB09D2B2240996C0CFAF314F)
Полное имя : E:\Nikolai.Baranov & PIRATIYA\ХОРОШИЙ ДОКТОР ( The Good Doctor)\THE_GOOD_DOCTOR_S01_Rus_Eng[LostFilm_NewStudio_ BaibaKo]_DD5.1_N.B_HD_720_Rus_Eng\The_Good_Doctor_S01E01_Н264_DD5.1_N.B_HD_720_3xRus_Eng.mkv
Формат : Matroska
Версия формата : Version 4 / Version 2
Размер файла : 1,94 Гбайт
Продолжительность : 43 м. 24 с.
Общий поток : 6384 Кбит/сек
Название фильма : The Good Doctor S01E01 @ Nikolai.Baranov & PIRATIYA
Дата кодирования : UTC 2018-01-01 10:52:01
Программа кодирования : mkvmerge v19.0.0 ('Brave Captain') 64-bit
Библиотека кодирования : libebml v1.3.5 + libmatroska v1.4.8
Видео
Идентификатор : 1
Формат : AVC
Формат/Информация : Advanced Video Codec
Профиль формата : High@L3.1
Настройки формата : CABAC / 3 Ref Frames
Параметр CABAC формата : Да
Параметр RefFrames формата : 3 кадра
Идентификатор кодека : V_MPEG4/ISO/AVC
Продолжительность : 43 м. 24 с.
Битрейт : 4333 Кбит/сек
Ширина : 1280 пикселей
Высота : 720 пикселей
Соотношение сторон : 16:9
Режим частоты кадров : Постоянный
Частота кадров : 23,976 (24000/1001) кадра/сек
Цветовое пространство : YUV
Субдискретизация насыщенности : 4:2:0
Битовая глубина : 8 бит
Тип развёртки : Прогрессивная
Бит/(Пиксели*Кадры) : 0.196
Размер потока : 1,31 Гбайт (68%)
Заголовок : The_Good_Doctor_S01E01_Н264_DD5.1_N.B_HD_720_3xRus_Eng
Язык : Russian
Default : Нет
Forced : Нет
Аудио #1
Идентификатор : 5
Формат : AC-3
Формат/Информация : Audio Coding 3
Идентификатор кодека : A_AC3
Продолжительность : 43 м. 24 с.
Вид битрейта : Постоянный
Битрейт : 640 Кбит/сек
Каналы : 6 каналов
Расположение каналов : Front: L C R, Side: L R, LFE
Частота : 48,0 КГц
Частота кадров : 31,250 кадров/сек (1536 SPF)
Битовая глубина : 16 бит
Метод сжатия : С потерями
Размер потока : 199 Мбайт (10%)
Заголовок : MVO LostFilm @DD5.1 AC3, 640 Kbps, 48.0 KHz, 6 ch
Язык : Russian
ServiceKind/String : Complete Main
Default : Да
Forced : Нет
Аудио #2
Идентификатор : 6
Формат : AC-3
Формат/Информация : Audio Coding 3
Идентификатор кодека : A_AC3
Продолжительность : 43 м. 24 с.
Вид битрейта : Постоянный
Битрейт : 384 Кбит/сек
Каналы : 6 каналов
Расположение каналов : Front: L C R, Side: L R, LFE
Частота : 48,0 КГц
Частота кадров : 31,250 кадров/сек (1536 SPF)
Битовая глубина : 16 бит
Метод сжатия : С потерями
Размер потока : 119 Мбайт (6%)
Заголовок : MVO NewStudio @DD5.1 AC3, 384 Kbps, 48.0 KHz, 6 ch
Язык : Russian
ServiceKind/String : Complete Main
Default : Нет
Forced : Нет
Аудио #3
Идентификатор : 7
Формат : AC-3
Формат/Информация : Audio Coding 3
Идентификатор кодека : A_AC3
Продолжительность : 43 м. 24 с.
Вид битрейта : Постоянный
Битрейт : 384 Кбит/сек
Каналы : 6 каналов
Расположение каналов : Front: L C R, Side: L R, LFE
Частота : 48,0 КГц
Частота кадров : 31,250 кадров/сек (1536 SPF)
Битовая глубина : 16 бит
Метод сжатия : С потерями
Размер потока : 119 Мбайт (6%)
Заголовок : MVO BaibaKo @DD5.1 AC3, 384 Kbps, 48.0 KHz, 6 ch
Язык : Russian
ServiceKind/String : Complete Main
Default : Нет
Forced : Нет
Аудио #4
Идентификатор : 8
Формат : AC-3
Формат/Информация : Audio Coding 3
Идентификатор кодека : A_AC3
Продолжительность : 43 м. 24 с.
Вид битрейта : Постоянный
Битрейт : 640 Кбит/сек
Каналы : 6 каналов
Расположение каналов : Front: L C R, Side: L R, LFE
Частота : 48,0 КГц
Частота кадров : 31,250 кадров/сек (1536 SPF)
Битовая глубина : 16 бит
Метод сжатия : С потерями
Размер потока : 199 Мбайт (10%)
Заголовок : Original@DD5.1 AC3 ,640 Kbps, 48.0 KHz, 6 ch
Язык : English
ServiceKind/String : Complete Main
Default : Нет
Forced : Нет
Текст #1
Идентификатор : 2
Формат : UTF-8
Идентификатор кодека : S_TEXT/UTF8
Идентификатор кодека/Информация : UTF-8 Plain Text
Продолжительность : 5 м. 9 с.
Битрейт : 15 бит/сек
ElementCount : 6
Размер потока : 590 байт (0%)
Заголовок : Rus-Надписи
Язык : Russian
Default : Да
Forced : Нет
Текст #2
Идентификатор : 3
Формат : UTF-8
Идентификатор кодека : S_TEXT/UTF8
Идентификатор кодека/Информация : UTF-8 Plain Text
Продолжительность : 40 м. 48 с.
Битрейт : 99 бит/сек
ElementCount : 618
Размер потока : 29,6 Кбайт (0%)
Заголовок : Rus
Язык : Russian
Default : Нет
Forced : Нет
Текст #3
Идентификатор : 4
Формат : UTF-8
Идентификатор кодека : S_TEXT/UTF8
Идентификатор кодека/Информация : UTF-8 Plain Text
Продолжительность : 42 м. 41 с.
Битрейт : 68 бит/сек
ElementCount : 755
Размер потока : 21,3 Кбайт (0%)
Заголовок : Original - SDH
Язык : English
Default : Нет
Forced : Нет
Меню
00:00:00.000 : en:Глава 01 / en:Глава 01 / en:Глава 01 / en:Глава 01 / en:Глава 01 / en:Глава 01 / en:Глава 01 / en:Глава 01
--

Скриншоты

-- --

Как закачать отдельный файл

1. Открыть торрент
2. Снять галки с тех файлов торрента, которые мы не хотим закачивать. Оставляем только на нужных нам файлах (файле).
3. Нажать О.К.
В клиенте utorrent
Инструкция
1) Открыть торрент

2) Снять галки с тех файлов торрента, которые мы не хотим закачивать:
* либо вручную, снимая с каждого файла галку( скрин №1)
* либо, нажав кнопку "Снять метки (Select None)", сняв сразу со всех файлов(скрин №2)
№1

№2

Оставляем только на нужных нам файлах (файле).

3)Нажать О.К
-- -- --Внимание!!! 30.03. 2018. РАЗДАЧА ОБНОВЛЕНА. ДОБАВЛЕНА 18 СЕРИЯ. ФИНАЛ СЕЗОНА. ОБНОВИТЕ ТОРЕНТ ФАЙЛ. ПРИЯТНОГО ПРОСМОТРА . --Релиз от: Nikolai.Baranov & PIRATIYA -- -- -- --
Скачать

Скачать торрент!

Как скачивать? · Что такое торрент? · Рейтинг и ограничения

Сайт не распространяет и не хранит электронные версии произведений, а лишь предоставляет доступ к создаваемому пользователями каталогу ссылок на торрент-файлы, которые содержат только списки хеш-сумм

загрузка...

_________________

Легко быть оптимистом, когда судьба не валит с ног тяжелыми ударами, а лишь иногда легонько шлепает по заднице.
[Профиль] [ЛС]
Показать сообщения:    
Ответить на тему

Текущее время: Сегодня 06:03

Часовой пояс: GMT + 4



Вы не можете начинать темы
Вы не можете отвечать на сообщения
Вы не можете редактировать свои сообщения
Вы не можете удалять свои сообщения
Вы не можете голосовать в опросах
Вы не можете прикреплять файлы к сообщениям
Вы не можете скачивать файлы