Как Витька Чеснок вез Леху Штыря в дом инвалидов [2017] (Александр Хант) [Драма, комедия, криминал] [WEB-DL] [1080p] [DD5.1][Лицензия iTunes]

Ответить на тему
 
Автор Сообщение

Nikolai.Baranov ®

Пол:

Стаж: 9 месяцев 6 дней

Сообщений: 40

Откуда: Красногорск

Пост Пост: #1 от 29-Дек-2017 19:41

[Цитировать]

--Как Витька Чеснок вез Леху Штыря в дом инвалидов-- --Год выпуска: 2017
Выпущено: Россия , Продюсерский центр «ВГИК-Дебют»
Жанр: Драма, комедия, криминал
Продолжительность: 01:29:40--Озвучка : -Русский - Лицензия iTunes --IMDb --Режиссер:
Александр Хант--В ролях: Алексей Серебряков, Евгений Ткачук, Ольга Лапшина, Роман Шаляпин, Наталия Вдовина, Алина Насибуллина, Сергей Букреев, Яна Сексте, Дмитрий Архангельский, Александра Велескевич, Михаил Тройник, Ксения Орлова, Георгий Кудренко, Ольга Воронина, Андрей Смирнов (I), Константин Гацалов, Ольга Озоллапиня
-- Картина расскажет о 27-летнем Витьке Чесноке, парне с детдомовским прошлым, который мечтает сбежать от «мешающих» ему жить жены и сына. Недолюбленный в детстве и очерствевший сердцем Витька Чеснок встречает своего отца-уголовника, а теперь еще и калеку. Витька решает отвезти отца в дом инвалидов, не подозревая, какие приключения и опасности ждут их по дороге.-- --Качество : WEB-DL 1080p
Формат: MKV
Видео кодек: H264
Видео: 8339Kбит/сек,1920х1080(16.9),в 25.000кадр/сек,,AVC(Baseline@L5.1)(1Ref Frames)
Аудио Кодек:AC3
Аудио #1:AC3 , 384 Kbps, 48.0 KHz, 6 ch-Русский - Лицензия iTunes--

MediaInfo

Общее
Уникальный идентификатор : 303151780265738012672039038001862532640 (0xE410E8BCCBF20420E9B0CE6039C1DE20)
Полное имя : C:\ХОББИ\ПИРАТИЯ(PIRATIYA)\Как Витька Чеснок вез Леху Штыря в дом инвалидов\Kak.Vit'ka.Chesnok.vez.Lekhu.Shtyrya.v.dom.invalidov.Rus.Н264.DD5.1.N.B.HD.1080p\Kak.Vit'ka.Chesnok.vez.Lekhu.Shtyrya.v.dom.invalidov.2017.Rus.N.B.HD.1080.mkv
Формат : Matroska
Версия формата : Version 4 / Version 2
Размер файла : 5,52 Гбайт
Продолжительность : 1 ч. 30 м.
Режим общего битрейта : Переменный
Общий поток : 8725 Кбит/сек
Название фильма : Kak.Vit'ka.Chesnok.vez.Lekhu.Shtyrya.v.dom.invalidov@Nikolai.Baranov&PIRATIYA
Дата кодирования : UTC 2017-12-29 11:11:56
Программа кодирования : mkvmerge v19.0.0 ('Brave Captain') 64-bit
Библиотека кодирования : libebml v1.3.5 + libmatroska v1.4.8
Видео
Идентификатор : 1
Формат : AVC
Формат/Информация : Advanced Video Codec
Профиль формата : Baseline@L5.1
Настройки формата : 1 Ref Frames
Параметр CABAC формата : Нет
Параметр RefFrames формата : 1 кадр
Параметр GOP формата : M=1, N=12
Идентификатор кодека : V_MPEG4/ISO/AVC
Продолжительность : 1 ч. 30 м.
Вид битрейта : Переменный
Битрейт : 8339 Кбит/сек
Максимальный битрейт : 12,0 Мбит/сек
Ширина : 1920 пикселей
Высота : 1080 пикселей
Соотношение сторон : 16:9
Режим частоты кадров : Постоянный
Частота кадров : 25,000 кадров/сек
Частота кадров в оригинале : 24,000 кадра/сек
Цветовое пространство : YUV
Субдискретизация насыщенности : 4:2:0
Битовая глубина : 8 бит
Тип развёртки : Прогрессивная
Бит/(Пиксели*Кадры) : 0.161
Размер потока : 5,28 Гбайт (96%)
Заголовок : Kak.Vit'ka.Chesnok.vez.Lekhu.Shtyrya.v.dom.invalidov.2017.Rus.N.B.HD.1080
Язык : Russian
Default : Да
Forced : Нет
Аудио
Идентификатор : 2
Формат : AC-3
Формат/Информация : Audio Coding 3
Идентификатор кодека : A_AC3
Продолжительность : 1 ч. 30 м.
Вид битрейта : Постоянный
Битрейт : 384 Кбит/сек
Каналы : 6 каналов
Расположение каналов : Front: L C R, Side: L R, LFE
Частота : 48,0 КГц
Частота кадров : 31,250 кадров/сек (1536 SPF)
Битовая глубина : 16 бит
Метод сжатия : С потерями
Размер потока : 249 Мбайт (4%)
Заголовок : Russian @DD5.1 AC3, 384 Kbps, 48.0 KHz, 6 ch
Язык : Russian
ServiceKind/String : Complete Main
Default : Да
Forced : Нет
Меню
00:00:00.000 : en:Глава 01 / en:Глава 01
--

Скриншоты

-- -- -- --Релиз от: Nikolai.Baranov & PIRATIYA -- -- -- --
Скачать

Скачать торрент!

Как скачивать? · Что такое торрент? · Рейтинг и ограничения

Сайт не распространяет и не хранит электронные версии произведений, а лишь предоставляет доступ к создаваемому пользователями каталогу ссылок на торрент-файлы, которые содержат только списки хеш-сумм

загрузка...

_________________

Легко быть оптимистом, когда судьба не валит с ног тяжелыми ударами, а лишь иногда легонько шлепает по заднице.
[Профиль] [ЛС]
Показать сообщения:    
Ответить на тему

Текущее время: Сегодня 06:02

Часовой пояс: GMT + 4



Вы не можете начинать темы
Вы не можете отвечать на сообщения
Вы не можете редактировать свои сообщения
Вы не можете удалять свои сообщения
Вы не можете голосовать в опросах
Вы не можете прикреплять файлы к сообщениям
Вы не можете скачивать файлы