Падение Ордена / Knightfall [2017] (Сезон 1 , Серия 1-10 из 10) (Дуглас Маккиннон, Метин Хусейн) [ Историческая драма , WEB-DLRip][1080p][LostFilm+AlexFilm+ SDI Media+BaibaKo+ViruseProject+OmskBird+Eng]+[Subs Rus , ENG]

Ответить на тему
 
Автор Сообщение

Nikolai.Baranov ®

Пол:

Стаж: 11 месяцев 5 дней

Сообщений: 43

Откуда: Красногорск

Пост Пост: #1 от 11-Дек-2017 14:22

[Цитировать]

-- --Падение Ордена / Knightfall Сезон 1 , Серия 1-10 из 10-- --Год выпуска: 2017-2018
Выпущено: США , History Channel, A+E Studios, Midnight Radio, Stillking Films
Жанр: Историческая драма
Продолжительность: 00:44:00
Сезон:1
Серия:1-10
Количество серий в сезоне: 10--Озвучка 1: Профессиональный многоголосый -LostFilm -Русский
Озвучка 2: Профессиональный многоголосый - AlexFilm -Русский
Озвучка 3: Профессиональный многоголосый - SDI Media -Русский
Озвучка 4: Профессиональный многоголосый - BaibaKo -Русский
Озвучка 5: Профессиональный многоголосый - ViruseProject -Русский
Озвучка 6: Профессиональный многоголосый - OmskBird -Русский
Озвучка 7: Профессиональный многоголосый - Английский - Оригинал
Субтитры: : Русские,Английские --Официальный сайт
IMDb Кинопоиск--Режиссер: Дуглас Маккиннон, Метин Хусейн, Дэвид Петрарка--В ролях: Том Каллен, Падрейк Делани, Саймон Мерреллс, Оливия Росс, Джулиан Овенден, Эд Стоппард, Сабрина Бартлетт, Бобби Шофилд, Сара-Софи Бусснина, Нассер Мемарзиа-- Действие сериала разворачивается вокруг самой драгоценной и загадочной реликвии христианства — Святого Грааля, бесследно утерянного в результате падения города Акры, последнего оплота тамплиеров. Существование Ордена теперь под угрозой и зависит от того, будет ли найден Кубок Христа. На поиски Грааля отправляется предводитель тамплиеров — храбрый воин сэр Лэндри, чтобы помешать уничтожению Ордена.-- --Качество :WEB-DLRip 1080p
Формат: MKV
Видео кодек: H264
Видео: 12.4Mбит/сек,1920х1080(16.9),в 23.976кадр/сек,AVC (High@L4)(CABAC/4 Ref Frames)--Аудио Кодек:AC3
Аудио #1:AC3 , 640 Kbps, 48.0 KHz, 6 ch -LostFilm -Русский
Аудио #2:AC3 , 384 Kbps, 48.0 KHz, 6 ch - AlexFilm -Русский
Аудио #3:AC3 , 384 Kbps, 48.0 KHz, 6 ch - SDI Media -Русский
Аудио #4:AC3 , 384Kbps, 48.0 KHz, 6 ch - BaibaKo -Русский
Аудио #5:AC3 , 384 Kbps, 48.0 KHz, 6 ch - -ViruseProject -Русский
Аудио #6:AC3 , 384 Kbps, 48.0 KHz, 6 ch -OmskBird -Русский
Аудио #7: AC3, 640 Kbps, 48.0 KHz,6 ch - English - Оригинал--

Доп. информация:

Звуковая дорожка сделана путем наложения чистого голоса озвучивателей на центральный канал оригинальной дорожки. Качество идентично звуковой дорожке.
--

Список эпизодов сезона


1 сезон 1 серия - Ты знаешь, что делать - You’d Know What to Do
1 сезон 2 серия - Найди нам Грааль - Find Us the Grail
1 сезон 3 серия - Черный волк и белый волк - The Black Wolf and The White Wolf
1 сезон 4 серия - Познавший себя познает и Бога - He Who Discovers His Own Self, Discovers God
1 сезон 5 серия - Сильным ударом изгонится грех - Hard Blows Will Banish the Sin
1 сезон 6 серия - Паломничество цепей - The Pilgrimage of Chains
1 сезон 7 серия - Уж точно не калеке - And Certainly Not the Cripple
1 сезон 8 серия - IV - IV
1 сезон 9 серия - Да будет так - Fiat!
1 сезон 10 серия - Ты видишь синеву? - Do You See the Blue?
--

MediaInfo сезона

Общее
Уникальный идентификатор : 221770065856667128968261202613864754331 (0xA6D75C6E711B343298B2FCCD72EFEC9B)
Полное имя : C:\ХОББИ\ПИРАТИЯ(PIRATIYA)\ПАДЕНИЕ ОРДЕНА (Knightfall)\Knightfall_2017_S01_Rus_Eng[LostFilm_ AlexFilm_ SDI Media_BaibaKo_ViruseProject_OmskBird]_Н264_N.B_HD_1080\Knightfall_S01E01_6xRus_Eng_Н264_DD5.1_N.B_HD_1080p.mkv
Формат : Matroska
Версия формата : Version 4 / Version 2
Размер файла : 4,83 Гбайт
Продолжительность : 44 м. 21 с.
Режим общего битрейта : Переменный
Общий поток : 15,6 Мбит/сек
Название фильма : Knightfall S01E01 @ Nikolai.Baranov & PIRATIYA
Дата кодирования : UTC 2017-12-17 09:10:40
Программа кодирования : mkvmerge v18.0.0 ('Apricity') 64-bit
Библиотека кодирования : libebml v1.3.5 + libmatroska v1.4.8
Видео
Идентификатор : 1
Формат : AVC
Формат/Информация : Advanced Video Codec
Профиль формата : High@L4
Настройки формата : CABAC / 4 Ref Frames
Параметр CABAC формата : Да
Параметр RefFrames формата : 4 кадра
Идентификатор кодека : V_MPEG4/ISO/AVC
Продолжительность : 44 м. 20 с.
Вид битрейта : Переменный
Битрейт : 12,4 Мбит/сек
Максимальный битрейт : 15,0 Мбит/сек
Ширина : 1920 пикселей
Высота : 1080 пикселей
Соотношение сторон : 16:9
Режим частоты кадров : Постоянный
Частота кадров : 23,976 (24000/1001) кадра/сек
Цветовое пространство : YUV
Субдискретизация насыщенности : 4:2:0
Битовая глубина : 8 бит
Тип развёртки : Прогрессивная
Бит/(Пиксели*Кадры) : 0.249
Размер потока : 3,84 Гбайт (79%)
Заголовок : Knightfall_S01E01_6xRus_Eng_Н264_DD5.1_N.B_HD_1080p
Язык : Russian
Default : Да
Forced : Нет
Цветовой диапазон : Limited
Основные цвета : BT.709
Характеристики трансфера : BT.709
Коэффициенты матрицы : BT.709
Аудио #1
Идентификатор : 4
Формат : AC-3
Формат/Информация : Audio Coding 3
Идентификатор кодека : A_AC3
Продолжительность : 44 м. 18 с.
Вид битрейта : Постоянный
Битрейт : 640 Кбит/сек
Каналы : 6 каналов
Расположение каналов : Front: L C R, Side: L R, LFE
Частота : 48,0 КГц
Частота кадров : 31,250 кадров/сек (1536 SPF)
Битовая глубина : 16 бит
Метод сжатия : С потерями
Размер потока : 203 Мбайт (4%)
Заголовок : MVO LostFilm @DD5.1 AC3, 640 Kbps, 48.0 KHz, 6 ch
Язык : Russian
ServiceKind/String : Complete Main
Default : Да
Forced : Нет
Аудио #2
Идентификатор : 5
Формат : AC-3
Формат/Информация : Audio Coding 3
Идентификатор кодека : A_AC3
Продолжительность : 44 м. 19 с.
Вид битрейта : Постоянный
Битрейт : 384 Кбит/сек
Каналы : 6 каналов
Расположение каналов : Front: L C R, Side: L R, LFE
Частота : 48,0 КГц
Частота кадров : 31,250 кадров/сек (1536 SPF)
Битовая глубина : 16 бит
Метод сжатия : С потерями
Размер потока : 122 Мбайт (2%)
Заголовок : MVO AlexFilm @DD5.1 AC3, 384 Kbps, 48.0 KHz, 6 ch
Язык : Russian
ServiceKind/String : Complete Main
Default : Нет
Forced : Нет
Аудио #3
Идентификатор : 6
Формат : AC-3
Формат/Информация : Audio Coding 3
Идентификатор кодека : A_AC3
Продолжительность : 44 м. 20 с.
Вид битрейта : Постоянный
Битрейт : 384 Кбит/сек
Каналы : 6 каналов
Расположение каналов : Front: L C R, Side: L R, LFE
Частота : 48,0 КГц
Частота кадров : 31,250 кадров/сек (1536 SPF)
Битовая глубина : 16 бит
Метод сжатия : С потерями
Размер потока : 122 Мбайт (2%)
Заголовок : MVO SDI Media @DD5.1 AC3, 384 Kbps, 48.0 KHz, 6 ch
ServiceKind/String : Complete Main
Default : Нет
Forced : Нет
Аудио #4
Идентификатор : 7
Формат : AC-3
Формат/Информация : Audio Coding 3
Идентификатор кодека : A_AC3
Продолжительность : 44 м. 20 с.
Вид битрейта : Постоянный
Битрейт : 384 Кбит/сек
Каналы : 6 каналов
Расположение каналов : Front: L C R, Side: L R, LFE
Частота : 48,0 КГц
Частота кадров : 31,250 кадров/сек (1536 SPF)
Битовая глубина : 16 бит
Метод сжатия : С потерями
Размер потока : 122 Мбайт (2%)
Заголовок : MVO BaibaKo @DD5.1 AC3, 384 Kbps, 48.0 KHz, 6 ch
Язык : Russian
ServiceKind/String : Complete Main
Default : Нет
Forced : Нет
Аудио #5
Идентификатор : 8
Формат : AC-3
Формат/Информация : Audio Coding 3
Идентификатор кодека : A_AC3
Продолжительность : 44 м. 21 с.
Вид битрейта : Постоянный
Битрейт : 384 Кбит/сек
Каналы : 6 каналов
Расположение каналов : Front: L C R, Side: L R, LFE
Частота : 48,0 КГц
Частота кадров : 31,250 кадров/сек (1536 SPF)
Битовая глубина : 16 бит
Метод сжатия : С потерями
Размер потока : 122 Мбайт (2%)
Заголовок : MVO ViruseProject @DD5.1 AC3, 384 Kbps, 48.0 KHz, 6 ch
Язык : Russian
ServiceKind/String : Complete Main
Default : Нет
Forced : Нет
Аудио #6
Идентификатор : 9
Формат : AC-3
Формат/Информация : Audio Coding 3
Идентификатор кодека : A_AC3
Продолжительность : 44 м. 20 с.
Вид битрейта : Постоянный
Битрейт : 640 Кбит/сек
Каналы : 6 каналов
Расположение каналов : Front: L C R, Side: L R, LFE
Частота : 48,0 КГц
Частота кадров : 31,250 кадров/сек (1536 SPF)
Битовая глубина : 16 бит
Метод сжатия : С потерями
Размер потока : 203 Мбайт (4%)
Заголовок : Original@DD5.1 AC3 ,640 Kbps, 48.0 KHz, 6 ch
Язык : English
ServiceKind/String : Complete Main
Default : Нет
Forced : Нет
Аудио #7
Идентификатор : 10
Формат : AC-3
Формат/Информация : Audio Coding 3
Идентификатор кодека : A_AC3
Продолжительность : 44 м. 20 с.
Вид битрейта : Постоянный
Битрейт : 384 Кбит/сек
Каналы : 6 каналов
Расположение каналов : Front: L C R, Side: L R, LFE
Частота : 48,0 КГц
Частота кадров : 31,250 кадров/сек (1536 SPF)
Битовая глубина : 16 бит
Метод сжатия : С потерями
Размер потока : 122 Мбайт (2%)
Заголовок : MVO OmskBird @DD5.1 AC3, 384 Kbps, 48.0 KHz, 6 ch
Язык : Russian
ServiceKind/String : Complete Main
Default : Нет
Forced : Нет
Текст #1
Идентификатор : 2
Формат : UTF-8
Идентификатор кодека : S_TEXT/UTF8
Идентификатор кодека/Информация : UTF-8 Plain Text
Продолжительность : 43 м. 45 с.
Битрейт : 91 бит/сек
ElementCount : 559
Размер потока : 29,4 Кбайт (0%)
Заголовок : Rus
Язык : Russian
Default : Да
Forced : Нет
Текст #2
Идентификатор : 3
Формат : UTF-8
Идентификатор кодека : S_TEXT/UTF8
Идентификатор кодека/Информация : UTF-8 Plain Text
Продолжительность : 44 м. 16 с.
Битрейт : 52 бит/сек
ElementCount : 808
Размер потока : 17,0 Кбайт (0%)
Заголовок : Original - SDH
Язык : English
Default : Нет
Forced : Нет
Меню
00:00:00.000 : en:Глава 01 / en:Глава 01 / en:Глава 01 / en:Глава 01 / en:Глава 01 / en:Глава 01 / en:Глава 01 / en:Глава 01 / en:Глава 01 / en:Глава 01
--

Скриншоты

-- --

Как закачать отдельный файл

1. Открыть торрент
2. Снять галки с тех файлов торрента, которые мы не хотим закачивать. Оставляем только на нужных нам файлах (файле).
3. Нажать О.К.
В клиенте utorrent
Инструкция
1) Открыть торрент

2) Снять галки с тех файлов торрента, которые мы не хотим закачивать:
* либо вручную, снимая с каждого файла галку( скрин №1)
* либо, нажав кнопку "Снять метки (Select None)", сняв сразу со всех файлов(скрин №2)
№1

№2

Оставляем только на нужных нам файлах (файле).

3)Нажать О.К
-- -- --Внимание!!! 12.02. 2018. РАЗДАЧА ОБНОВЛЕНА. ДОБАВЛЕНА 10 СЕРИЯ. ФИНАЛ СЕЗОНА . ОБНОВИТЕ ТОРЕНТ ФАЙЛ. ПРИЯТНОГО ПРОСМОТРА . --Релиз от: Nikolai.Baranov & PIRATIYA -- -- -- --
Скачать

Скачать торрент!

Как скачивать? · Что такое торрент? · Рейтинг и ограничения

Сайт не распространяет и не хранит электронные версии произведений, а лишь предоставляет доступ к создаваемому пользователями каталогу ссылок на торрент-файлы, которые содержат только списки хеш-сумм

загрузка...

_________________

Легко быть оптимистом, когда судьба не валит с ног тяжелыми ударами, а лишь иногда легонько шлепает по заднице.
[Профиль] [ЛС]
Показать сообщения:    
Ответить на тему

Текущее время: Сегодня 14:13

Часовой пояс: GMT + 4



Вы не можете начинать темы
Вы не можете отвечать на сообщения
Вы не можете редактировать свои сообщения
Вы не можете удалять свои сообщения
Вы не можете голосовать в опросах
Вы не можете прикреплять файлы к сообщениям
Вы не можете скачивать файлы