Викинги / Vikings [2017] (Сезон 5, Серия 1 -3 из 20) (Киаран Доннелли, Йохан Ренк) [Историческая драма, приключения, боевик, викинги , WEB-DLRip] [1080p] [AlexFilm+Amedia+BaibaKo+Jaskier +OMSKBIRD+LostFilm+NewStudio+English] + [Subs Rus , ENG]

Ответить на тему
 
Автор Сообщение

Nikolai.Baranov ®

Пол:

Стаж: 4 месяца 27 дней

Сообщений: 25

Откуда: Красногорск

Пост Пост: #1 от 03-Дек-2017 15:27

[Цитировать]

-- --Викинги / Vikings Сезон 5, Серия 1 -3 из 20-- --Год выпуска: 2017
Выпущено: Ирландия, Канада, Irish Film Board, Shaw Media, Take 5 Productions, World 2000 Entertainment
Жанр: Историческая драма, приключения, боевик, викинги
Продолжительность: 00:44:00
Сезон:5
Серия: 1 -3
Количество серий в сезоне: 20--Озвучка 1: Профессиональный многоголосый - AlexFilm -Русский
Озвучка 2: Профессиональный многоголосый - Amedia -Русский
Озвучка 3: Профессиональный многоголосый - BaibaKo -Русский
Озвучка 4: Профессиональный многоголосый - Jaskier -Русский
Озвучка 5: Профессиональный многоголосый -OMSKBIRD -Русский
Озвучка 6: Профессиональный многоголосый -LostFilm -Русский
Озвучка 7: Профессиональный многоголосый -NewStudio -Русский
Озвучка 8: Профессиональный многоголосый - Английский - Оригинал
Субтитры: : Русские,Английские --Официальный сайт
--Режиссер: Киаран Доннелли, Йохан Ренк, Кен Джиротти--Сценаристы::Майкл Херст--В ролях: Трэвис Фиммел, Клайв Стэнден, Кэтрин Уинник, Гэбриел Бирн, Джессалин Гилсиг, Густаф Скарсгард, Джефферсон Холл, Джордж Благден, Тадж Мерфи, Диармэйд Мурта, Нэйтан О`Тул, Руби О`Лири, Джон Кэвэна, Сэм Лукас Смит, Гайя Вайсс, Александр Людвиг-- Исторический сериал «Викинги» от создателя «Тюдоров» и продюсера «Камелота» и «Борджиа» Майкла Херста расскажет о путешествиях легендарного героя скандинавских саг Рагнара Лодброка, а также о превращении молодого викинга в мудрого правителя, которого сравнивали с самим богом войны Одином. Проект канала History может похвастаться яркими персонажами, красивыми натурными съемками и эпичными батальными сценами.

Сюжет:Молодой фермер Рагнар Лодброк (Трэвис Фиммел), мечтающий о походе на Запад, выступает против воли местного правителя викингов, предпочитающего безопасные набеги на бедные соседние земли. Заручившись поддержкой своей семьи, герой принимает решение ослушаться приказа, тем самым разделив своих сородичей на два противоборствующих лагеря. С помощью искусного мастера Рагнар берется за строительство быстроходного корабля. С отрядом преданных бойцов викинг готов совершить нападение на сулящие несметные богатства земли англосаксов. Его легендарное путешествие в Британию будет воспето в мифах и преданиях…-- --Качество :WEB-DLRip 1080p
Формат: MKV
Видео кодек: H264
Видео: 6157Кбит/сек,1920х1080(16.9),в 23.976кадр/сек,AVC (High@L4)(CABAC/4 Ref Frames)--Аудио Кодек:AC3
Аудио #1:AC3 , 384 Kbps, 48.0 KHz, 6 ch- AlexFilm -Русский
Аудио #2:AC3 , 384 Kbps, 48.0 KHz, 6 ch- Amedia -Русский
Аудио #3:AC3 , 384 Kbps, 48.0 KHz, 6 ch- BaibaKo -Русский
Аудио #4:AC3 , 384Kbps, 48.0 KHz, 6 ch- Jaskier -Русский
Аудио #5:AC3 , 384 Kbps, 48.0 KHz, 6 ch- -OMSKBIRD -Русский
Аудио #6:AC3 , 384 Kbps, 48.0 KHz, 6 ch- -LostFilm -Русский
Аудио #7:AC3 , 384 Kbps, 48.0 KHz, 6 ch- -NewStudio -Русский
Аудио #8: AC3, 640 Kbps, 48.0 KHz,6 ch - - English - Оригинал--

Доп. информация:

Звуковая дорожка сделана путем наложения чистого голоса озвучивателей на центральный канал оригинальной дорожки. Качество идентично звуковой дорожке.
--

Список эпизодов сезона


5 сезон 1 серия - Прощание. Часть 1 - The Departed (1)
5 сезон 2 серия - Прощание. Часть 2 - The Departed (2)
5 сезон 3 серия - Родной край - Homeland
--

MediaInfo сезона

Общее
Уникальный идентификатор : 227677740719657946090514313068895167685 (0xAB49234A48D81264A11F34092C3E64C5)
Полное имя : C:\ХОББИ\ПИРАТИЯ(PIRATIYA)\ВИКИНГИ ( Vikings)\VIKINGS_S05_[AlexFilm_Amedia_BaibaKo_Jaskier_OMSKBIRD_LostFilm_NewStudio]_DD5.1_N.B_HD_1080_7xRus_Eng\VIKINGS_S05E01_Н264_DD5.1_N.B_WEB-DL_1080p_7xRus_Eng.mkv
Формат : Matroska
Версия формата : Version 4 / Version 2
Размер файла : 3,12 Гбайт
Продолжительность : 45 м. 50 с.
Режим общего битрейта : Переменный
Общий поток : 9745 Кбит/сек
Название фильма : Vikings S05E01 @ Nikolai.Baranov & PIRATIYA
Дата кодирования : UTC 2017-12-09 08:32:02
Программа кодирования : mkvmerge v18.0.0 ('Apricity') 64-bit
Библиотека кодирования : libebml v1.3.5 + libmatroska v1.4.8
Видео
Идентификатор : 1
Формат : AVC
Формат/Информация : Advanced Video Codec
Профиль формата : High@L4
Настройки формата : CABAC / 4 Ref Frames
Параметр CABAC формата : Да
Параметр RefFrames формата : 4 кадра
Идентификатор кодека : V_MPEG4/ISO/AVC
Продолжительность : 45 м. 50 с.
Вид битрейта : Переменный
Битрейт : 6157 Кбит/сек
Максимальный битрейт : 15,0 Мбит/сек
Ширина : 1920 пикселей
Высота : 1080 пикселей
Соотношение сторон : 16:9
Режим частоты кадров : Постоянный
Частота кадров : 23,976 (24000/1001) кадра/сек
Цветовое пространство : YUV
Субдискретизация насыщенности : 4:2:0
Битовая глубина : 8 бит
Тип развёртки : Прогрессивная
Бит/(Пиксели*Кадры) : 0.124
Размер потока : 1,97 Гбайт (63%)
Заголовок : VIKINGS_S05E01_Н264_DD5.1_N.B_WEB-DL_1080p_7xRus_Eng
Язык : Russian
Default : Да
Forced : Нет
Цветовой диапазон : Limited
Основные цвета : BT.709
Характеристики трансфера : BT.709
Коэффициенты матрицы : BT.709
Аудио #1
Идентификатор : 5
Формат : AC-3
Формат/Информация : Audio Coding 3
Идентификатор кодека : A_AC3
Продолжительность : 45 м. 50 с.
Вид битрейта : Постоянный
Битрейт : 640 Кбит/сек
Каналы : 6 каналов
Расположение каналов : Front: L C R, Side: L R, LFE
Частота : 48,0 КГц
Частота кадров : 31,250 кадров/сек (1536 SPF)
Битовая глубина : 16 бит
Метод сжатия : С потерями
Размер потока : 210 Мбайт (7%)
Заголовок : MVO AlexFilm @DD5.1 AC3, 640 Kbps, 48.0 KHz, 6 ch
Язык : Russian
ServiceKind/String : Complete Main
Default : Да
Forced : Нет
Аудио #2
Идентификатор : 6
Формат : AC-3
Формат/Информация : Audio Coding 3
Идентификатор кодека : A_AC3
Продолжительность : 45 м. 50 с.
Вид битрейта : Постоянный
Битрейт : 384 Кбит/сек
Каналы : 6 каналов
Расположение каналов : Front: L C R, Side: L R, LFE
Частота : 48,0 КГц
Частота кадров : 31,250 кадров/сек (1536 SPF)
Битовая глубина : 16 бит
Метод сжатия : С потерями
Размер потока : 126 Мбайт (4%)
Заголовок : MVO Amedia @DD5.1 AC3, 384 Kbps, 48.0 KHz, 6 ch
Язык : Russian
ServiceKind/String : Complete Main
Default : Нет
Forced : Нет
Аудио #3
Идентификатор : 7
Формат : AC-3
Формат/Информация : Audio Coding 3
Идентификатор кодека : A_AC3
Продолжительность : 45 м. 50 с.
Вид битрейта : Постоянный
Битрейт : 384 Кбит/сек
Каналы : 6 каналов
Расположение каналов : Front: L C R, Side: L R, LFE
Частота : 48,0 КГц
Частота кадров : 31,250 кадров/сек (1536 SPF)
Битовая глубина : 16 бит
Метод сжатия : С потерями
Размер потока : 126 Мбайт (4%)
Заголовок : MVO BaibaKo @DD5.1 AC3, 384 Kbps, 48.0 KHz, 6 ch
Язык : Russian
ServiceKind/String : Complete Main
Default : Нет
Forced : Нет
Аудио #4
Идентификатор : 8
Формат : AC-3
Формат/Информация : Audio Coding 3
Идентификатор кодека : A_AC3
Продолжительность : 45 м. 50 с.
Вид битрейта : Постоянный
Битрейт : 384 Кбит/сек
Каналы : 6 каналов
Расположение каналов : Front: L C R, Side: L R, LFE
Частота : 48,0 КГц
Частота кадров : 31,250 кадров/сек (1536 SPF)
Битовая глубина : 16 бит
Метод сжатия : С потерями
Размер потока : 126 Мбайт (4%)
Заголовок : MVO Jaskier @DD5.1 AC3, 384 Kbps, 48.0 KHz, 6 ch
Язык : Russian
ServiceKind/String : Complete Main
Default : Нет
Forced : Нет
Аудио #5
Идентификатор : 9
Формат : AC-3
Формат/Информация : Audio Coding 3
Идентификатор кодека : A_AC3
Продолжительность : 45 м. 50 с.
Вид битрейта : Постоянный
Битрейт : 384 Кбит/сек
Каналы : 6 каналов
Расположение каналов : Front: L C R, Side: L R, LFE
Частота : 48,0 КГц
Частота кадров : 31,250 кадров/сек (1536 SPF)
Битовая глубина : 16 бит
Метод сжатия : С потерями
Размер потока : 126 Мбайт (4%)
Заголовок : MVO OmskBird @DD5.1 AC3, 384 Kbps, 48.0 KHz, 6 ch
Язык : Russian
ServiceKind/String : Complete Main
Default : Нет
Forced : Нет
Аудио #6
Идентификатор : 10
Формат : AC-3
Формат/Информация : Audio Coding 3
Идентификатор кодека : A_AC3
Продолжительность : 45 м. 50 с.
Вид битрейта : Постоянный
Битрейт : 640 Кбит/сек
Каналы : 6 каналов
Расположение каналов : Front: L C R, Side: L R, LFE
Частота : 48,0 КГц
Частота кадров : 31,250 кадров/сек (1536 SPF)
Битовая глубина : 16 бит
Метод сжатия : С потерями
Размер потока : 210 Мбайт (7%)
Заголовок : Original @DD5.1 AC3, 640 Kbps, 48.0 KHz, 6 ch
Язык : English
ServiceKind/String : Complete Main
Default : Нет
Forced : Нет
Аудио #7
Идентификатор : 11
Формат : AC-3
Формат/Информация : Audio Coding 3
Идентификатор кодека : A_AC3
Продолжительность : 45 м. 50 с.
Вид битрейта : Постоянный
Битрейт : 384 Кбит/сек
Каналы : 6 каналов
Расположение каналов : Front: L C R, Side: L R, LFE
Частота : 48,0 КГц
Частота кадров : 31,250 кадров/сек (1536 SPF)
Битовая глубина : 16 бит
Метод сжатия : С потерями
Размер потока : 126 Мбайт (4%)
Заголовок : MVO LostFilm @DD5.1 AC3, 384 Kbps, 48.0 KHz, 6 ch
Язык : Russian
ServiceKind/String : Complete Main
Default : Нет
Forced : Нет
Аудио #8
Идентификатор : 12
Формат : AC-3
Формат/Информация : Audio Coding 3
Идентификатор кодека : A_AC3
Продолжительность : 45 м. 50 с.
Вид битрейта : Постоянный
Битрейт : 384 Кбит/сек
Каналы : 6 каналов
Расположение каналов : Front: L C R, Side: L R, LFE
Частота : 48,0 КГц
Частота кадров : 31,250 кадров/сек (1536 SPF)
Битовая глубина : 16 бит
Метод сжатия : С потерями
Размер потока : 126 Мбайт (4%)
Заголовок : MVO NewStudio @DD5.1 AC3, 384 Kbps, 48.0 KHz, 6 ch
Язык : Russian
ServiceKind/String : Complete Main
Default : Нет
Forced : Нет
Текст #1
Идентификатор : 2
Формат : UTF-8
Идентификатор кодека : S_TEXT/UTF8
Идентификатор кодека/Информация : UTF-8 Plain Text
Продолжительность : 42 м. 36 с.
Битрейт : 56 бит/сек
ElementCount : 378
Размер потока : 17,7 Кбайт (0%)
Заголовок : Rus
Язык : Russian
Default : Да
Forced : Нет
Текст #2
Идентификатор : 3
Формат : UTF-8
Идентификатор кодека : S_TEXT/UTF8
Идентификатор кодека/Информация : UTF-8 Plain Text
Продолжительность : 42 м. 36 с.
Битрейт : 36 бит/сек
ElementCount : 423
Размер потока : 11,3 Кбайт (0%)
Заголовок : Original
Язык : English
Default : Нет
Forced : Нет
Текст #3
Идентификатор : 4
Формат : UTF-8
Идентификатор кодека : S_TEXT/UTF8
Идентификатор кодека/Информация : UTF-8 Plain Text
Продолжительность : 44 м. 49 с.
Битрейт : 45 бит/сек
ElementCount : 587
Размер потока : 14,9 Кбайт (0%)
Заголовок : Original - SDH
Язык : English
Default : Нет
Forced : Нет
Меню
00:00:00.000 : en:Глава 01 / en:Глава 01 / en:Глава 01 / en:Глава 01 / en:Глава 01 / en:Глава 01 / en:Глава 01 / en:Глава 01 / en:Глава 01 / en:Глава 01 / en:Глава 01 / en:Глава 01
--

Скриншоты

-- --

Как закачать отдельный файл

1. Открыть торрент
2. Снять галки с тех файлов торрента, которые мы не хотим закачивать. Оставляем только на нужных нам файлах (файле).
3. Нажать О.К.
В клиенте utorrent
Инструкция
1) Открыть торрент

2) Снять галки с тех файлов торрента, которые мы не хотим закачивать:
* либо вручную, снимая с каждого файла галку( скрин №1)
* либо, нажав кнопку "Снять метки (Select None)", сняв сразу со всех файлов(скрин №2)
№1

№2

Оставляем только на нужных нам файлах (файле).

3)Нажать О.К
-- -- --Внимание!!! 09.12. 2017. РАЗДАЧА ОБНОВЛЕНА. ДОБАВЛЕНА 3 СЕРИЯ. ОБНОВИТЕ ТОРЕНТ ФАЙЛ. ПРИЯТНОГО ПРОСМОТРА . --Релиз от: Nikolai.Baranov & PIRATIYA -- -- -- --
Скачать

Скачать торрент!

Как скачивать? · Что такое торрент? · Рейтинг и ограничения

Сайт не распространяет и не хранит электронные версии произведений, а лишь предоставляет доступ к создаваемому пользователями каталогу ссылок на торрент-файлы, которые содержат только списки хеш-сумм


_________________

Легко быть оптимистом, когда судьба не валит с ног тяжелыми ударами, а лишь иногда легонько шлепает по заднице.
[Профиль] [ЛС]
Показать сообщения:    
Ответить на тему

Текущее время: Сегодня 05:35

Часовой пояс: GMT + 4



Вы не можете начинать темы
Вы не можете отвечать на сообщения
Вы не можете редактировать свои сообщения
Вы не можете удалять свои сообщения
Вы не можете голосовать в опросах
Вы не можете прикреплять файлы к сообщениям
Вы не можете скачивать файлы