Хроники Шаннары / The Shannara Chronicles [2017] (Сезон 2 , Серия 1-10 из 10) (Брэд Тёрнер) [Фантастика, фэнтези, приключения , WEB-DL][1080p][ LostFilm+AlexFilm+NewStudiо+BaibaKo+Jaskier+Ukr+Eng]+[Subs Rus , ENG]

Ответить на тему
 
Автор Сообщение

Nikolai.Baranov ®

Пол:

Стаж: 11 месяцев 5 дней

Сообщений: 43

Откуда: Красногорск

Пост Пост: #1 от 16-Окт-2017 18:32

[Цитировать]

--Хроники Шаннары / The Shannara Chronicles Сезон 2 , Серия 1-10 из 10-- --Год выпуска: 2017
Выпущено: США , MTV, Farah Films, Music Television (MTV), Sonar Entertainment
Жанр: Фантастика, фэнтези, приключения
Продолжительность: 00:43:00
Сезон:2
Серия: 1-10
Количество серий в сезоне: 10--Озвучка 1: Профессиональный многоголосый - LostFilm - Русский
Озвучка 2: Профессиональный многоголосый - AlexFilm - Русский
Озвучка 3: Профессиональный многоголосый - NewStudiо - Русский
Озвучка 4: Профессиональный многоголосый - BaibaKo- Русский
Озвучка 5: Профессиональный многоголосый - Jaskier - Русский
Озвучка 6: Профессиональный многоголосый - BaibaKo: - Ukrainian
Озвучка 8: Профессиональный многоголосый -Английский - Оригинал
Субтитры: Russian , ( English, English (SDH)
--MDB --Режиссеры:
Брэд Тёрнер, Джонатан Либесман, Джеймс Маршалл--В ролях: Поппи Дрейтон, Остин Роберт Батлер, Ивана Бакеро, Ману Беннетт, Эмилия Бёрнс, Аарон Якубенко, Джон Рис-Дэвис, Маркус Ванко, Брук Уильямс, Дэниэл МакФерсон-- За События сериала происходят в далёком будущем. Войны разделили Северную Америку на 4 части. На какой-то из них обитают эльфы, на иной - люди, на третьей - тролли и на четвёртой - дворфы. Основными персонажами сериала окажутся отпрыски древнего рода эльфов - Шаннара. Именно от них будет зависеть будущая судьба планеты...-- --Качество :WEB-DLRip 1080p
Формат: MKV
Видео кодек: H264
Видео: 11,3Мбит/сек,1920х1080(16.9), в 23.976кадр/сек,AVC (High@L4)(CABAC/4 Ref Frames)--Аудио Кодек:AC3
Аудио #1:AC3 , 640 Kbps, 48.0 KHz, 6 ch- LostFilm-Русский
Аудио #2:AC3 , 384 Kbps, 48.0 KHz, 6 ch- AlexFilm-Русский
Аудио #3: AC3, 384 Kbps, 48.0 KHz, 6 ch - NewStudiо-Русский
Аудио #4: AC3, 384 Kbps, 48.0 KHz, 6 ch - BaibaKo-Русский
Аудио #5: AC3, 384 Kbps, 48.0 KHz, 6 ch - Jaskier -Русский
Аудио #6: AC3, 384 Kbps, 48.0 KHz, 6 ch -BaibaKo: - Ukrainian
Аудио #7: AC3, 640 Kbps, 48.0 KHz,6 ch - English-Английский -Оригинал--

Доп. информация:

Звуковая дорожка сделана путем наложения чистого голоса озвучивателей на центральный канал оригинальной дорожки. Качество идентично звуковой дорожке.
--

Список эпизодов сезона


2 сезон 1 серия - Друид--Druid
2 сезон 2 серия - Призрак - Wraith
2 сезон 3 серия - Греймарк - Graymark
2 сезон 4 серия - Пожиратель - Dweller
2 сезон 5 серия - Паранор - Paranor
2 сезон 6 серия - Кримсон - Crimson
2 сезон 7 серия - Чародей - Warlock
2 сезон 8 серия - Эмберли - Amberle
2 сезон 9 серия - Дикие Дебри - Wilderun
2 сезон 10 серия - Кровь - Blood
--

MediaInfo сезона

Общее
Уникальный идентификатор : 171708933835043913375014686087059406736 (0x812DF00FACA2EC7A9BDD5D6A496CFF90)
Полное имя : E:\ПИРАТИЯ(PIRATIYA)\Хроники Шаннары (The Shannara Chronicles)\THE_SHANNARA_CHRONICLES_S02_Rus[LostFilm_AlexFilm_NewStudiо_BaibaKo_Jaskier]_N.B_HD_1080_Ukr_Eng\The_Shannara_Chronicles_2017_S02E01_Н264_DD5.1_N.B_HD_1080_5xRus_Ukr_Eng.mkv
Формат : Matroska
Версия формата : Version 4 / Version 2
Размер файла : 4,39 Гбайт
Продолжительность : 43 м. 25 с.
Режим общего битрейта : Переменный
Общий поток : 14,5 Мбит/сек
Название фильма : The Shannara Chronicles S02E01 @ Nikolai.Baranov & PIRATIYA
Дата кодирования : UTC 2017-10-26 14:18:32
Программа кодирования : mkvmerge v17.0.0 ('Be Ur Friend') 64-bit
Библиотека кодирования : libebml v1.3.5 + libmatroska v1.4.8
Видео
Идентификатор : 1
Формат : AVC
Формат/Информация : Advanced Video Codec
Профиль формата : High@L4
Настройки формата : CABAC / 4 Ref Frames
Параметр CABAC формата : Да
Параметр RefFrames формата : 4 кадра
Идентификатор кодека : V_MPEG4/ISO/AVC
Продолжительность : 43 м. 25 с.
Вид битрейта : Переменный
Битрейт : 11,3 Мбит/сек
Максимальный битрейт : 15,0 Мбит/сек
Ширина : 1920 пикселей
Высота : 1080 пикселей
Соотношение сторон : 16:9
Режим частоты кадров : Постоянный
Частота кадров : 23,976 (24000/1001) кадра/сек
Цветовое пространство : YUV
Субдискретизация насыщенности : 4:2:0
Битовая глубина : 8 бит
Тип развёртки : Прогрессивная
Бит/(Пиксели*Кадры) : 0.227
Размер потока : 3,42 Гбайт (78%)
Заголовок : The_Shannara_Chronicles_2017_S02E01_Н264_DD5.1_N.B_HD_1080_5xRus_Ukr_Eng
Язык : Russian
Default : Нет
Forced : Нет
Цветовой диапазон : Limited
Основные цвета : BT.709
Характеристики трансфера : BT.709
Коэффициенты матрицы : BT.709
Аудио #1
Идентификатор : 3
Формат : AC-3
Формат/Информация : Audio Coding 3
Параметр Endianness формата : Big
Идентификатор кодека : A_AC3
Продолжительность : 43 м. 23 с.
Вид битрейта : Постоянный
Битрейт : 640 Кбит/сек
Каналы : 6 каналов
Расположение каналов : Front: L C R, Side: L R, LFE
Частота : 48,0 КГц
Частота кадров : 31,250 кадров/сек (1536 SPF)
Битовая глубина : 16 бит
Метод сжатия : С потерями
Размер потока : 199 Мбайт (4%)
Заголовок : MVO LostFilm @DD5.1 AC3, 640 Kbps, 48.0 KHz, 6 ch
Язык : Russian
ServiceKind/String : Complete Main
Default : Да
Forced : Нет
Аудио #2
Идентификатор : 4
Формат : AC-3
Формат/Информация : Audio Coding 3
Параметр Endianness формата : Big
Идентификатор кодека : A_AC3
Продолжительность : 43 м. 25 с.
Вид битрейта : Постоянный
Битрейт : 384 Кбит/сек
Каналы : 6 каналов
Расположение каналов : Front: L C R, Side: L R, LFE
Частота : 48,0 КГц
Частота кадров : 31,250 кадров/сек (1536 SPF)
Битовая глубина : 16 бит
Метод сжатия : С потерями
Размер потока : 119 Мбайт (3%)
Заголовок : MVO AlexFilm @DD5.1 AC3, 384 Kbps, 48.0 KHz, 6 ch
Язык : Russian
ServiceKind/String : Complete Main
Default : Нет
Forced : Нет
Аудио #3
Идентификатор : 5
Формат : AC-3
Формат/Информация : Audio Coding 3
Параметр Endianness формата : Big
Идентификатор кодека : A_AC3
Продолжительность : 43 м. 25 с.
Вид битрейта : Постоянный
Битрейт : 384 Кбит/сек
Каналы : 6 каналов
Расположение каналов : Front: L C R, Side: L R, LFE
Частота : 48,0 КГц
Частота кадров : 31,250 кадров/сек (1536 SPF)
Битовая глубина : 16 бит
Метод сжатия : С потерями
Размер потока : 119 Мбайт (3%)
Заголовок : MVO NewStudio @DD5.1 AC3, 384 Kbps, 48.0 KHz, 6 ch
Язык : Russian
ServiceKind/String : Complete Main
Default : Нет
Forced : Нет
Аудио #4
Идентификатор : 6
Формат : AC-3
Формат/Информация : Audio Coding 3
Параметр Endianness формата : Big
Идентификатор кодека : A_AC3
Продолжительность : 43 м. 25 с.
Вид битрейта : Постоянный
Битрейт : 384 Кбит/сек
Каналы : 6 каналов
Расположение каналов : Front: L C R, Side: L R, LFE
Частота : 48,0 КГц
Частота кадров : 31,250 кадров/сек (1536 SPF)
Битовая глубина : 16 бит
Метод сжатия : С потерями
Размер потока : 119 Мбайт (3%)
Заголовок : MVO BaibaKo @DD5.1 AC3, 384 Kbps, 48.0 KHz, 6 ch
Язык : Russian
ServiceKind/String : Complete Main
Default : Нет
Forced : Нет
Аудио #5
Идентификатор : 7
Формат : AC-3
Формат/Информация : Audio Coding 3
Параметр Endianness формата : Big
Идентификатор кодека : A_AC3
Продолжительность : 43 м. 25 с.
Вид битрейта : Постоянный
Битрейт : 384 Кбит/сек
Каналы : 6 каналов
Расположение каналов : Front: L C R, Side: L R, LFE
Частота : 48,0 КГц
Частота кадров : 31,250 кадров/сек (1536 SPF)
Битовая глубина : 16 бит
Метод сжатия : С потерями
Размер потока : 119 Мбайт (3%)
Заголовок : MVO Ukr BaibaKo @DD5.1 AC3, 384 Kbps, 48.0 KHz, 6 ch
Язык : Ukrainian
ServiceKind/String : Complete Main
Default : Нет
Forced : Нет
Аудио #6
Идентификатор : 8
Формат : AC-3
Формат/Информация : Audio Coding 3
Параметр Endianness формата : Big
Идентификатор кодека : A_AC3
Продолжительность : 43 м. 25 с.
Вид битрейта : Постоянный
Битрейт : 640 Кбит/сек
Каналы : 6 каналов
Расположение каналов : Front: L C R, Side: L R, LFE
Частота : 48,0 КГц
Частота кадров : 31,250 кадров/сек (1536 SPF)
Битовая глубина : 16 бит
Метод сжатия : С потерями
Размер потока : 199 Мбайт (4%)
Заголовок : Original @DD5.1 AC3, 640 Kbps, 48.0 KHz, 6 ch
Язык : English
ServiceKind/String : Complete Main
Default : Нет
Forced : Нет
Аудио #7
Идентификатор : 10
Формат : AC-3
Формат/Информация : Audio Coding 3
Параметр Endianness формата : Big
Идентификатор кодека : A_AC3
Продолжительность : 43 м. 25 с.
Вид битрейта : Постоянный
Битрейт : 384 Кбит/сек
Каналы : 6 каналов
Расположение каналов : Front: L C R, Side: L R, LFE
Частота : 48,0 КГц
Частота кадров : 31,250 кадров/сек (1536 SPF)
Битовая глубина : 16 бит
Метод сжатия : С потерями
Размер потока : 119 Мбайт (3%)
Заголовок : MVO Jaskier @DD5.1 AC3, 384 Kbps, 48.0 KHz, 6 ch
Язык : Russian
ServiceKind/String : Complete Main
Default : Нет
Forced : Нет
Текст #1
Идентификатор : 2
Формат : UTF-8
Идентификатор кодека : S_TEXT/UTF8
Идентификатор кодека/Информация : UTF-8 Plain Text
Продолжительность : 42 м. 52 с.
Битрейт : 74 бит/сек
ElementCount : 406
Размер потока : 23,5 Кбайт (0%)
Заголовок : Rus - ViruseProject
Язык : Russian
Default : Нет
Forced : Нет
Текст #2
Идентификатор : 9
Формат : UTF-8
Идентификатор кодека : S_TEXT/UTF8
Идентификатор кодека/Информация : UTF-8 Plain Text
Продолжительность : 42 м. 39 с.
Битрейт : 43 бит/сек
ElementCount : 487
Размер потока : 13,5 Кбайт (0%)
Заголовок : Original - SDH
Язык : English
Default : Нет
Forced : Нет
Меню
00:00:00.000 : en:Глава 01 / en:Глава 01 / en:Глава 01 / en:Глава 01 / en:Глава 01 / en:Глава 01 / en:Глава 01 / en:Глава 01 / en:Глава 01 / en:Глава 01 / en:Глава 01
--

Скриншоты

-- --

Как закачать отдельный файл

1. Открыть торрент
2. Снять галки с тех файлов торрента, которые мы не хотим закачивать. Оставляем только на нужных нам файлах (файле).
3. Нажать О.К.
В клиенте utorrent
Инструкция
1) Открыть торрент

2) Снять галки с тех файлов торрента, которые мы не хотим закачивать:
* либо вручную, снимая с каждого файла галку( скрин №1)
* либо, нажав кнопку "Снять метки (Select None)", сняв сразу со всех файлов(скрин №2)
№1

№2

Оставляем только на нужных нам файлах (файле).

3)Нажать О.К
-- -- --Внимание!!! 03.12. 2017. РАЗДАЧА ОБНОВЛЕНА. ФИНАЛ СЕЗОНА. ДОБАВЛЕНА 79- 10 СЕРИЯ. ОБНОВИТЕ ТОРЕНТ ФАЙЛ. ПРИЯТНОГО ПРОСМОТРА . --Релиз от: Nikolai.Baranov & PIRATIYA -- -- -- --
Скачать

Скачать торрент!

Как скачивать? · Что такое торрент? · Рейтинг и ограничения

Сайт не распространяет и не хранит электронные версии произведений, а лишь предоставляет доступ к создаваемому пользователями каталогу ссылок на торрент-файлы, которые содержат только списки хеш-сумм

загрузка...

_________________

Легко быть оптимистом, когда судьба не валит с ног тяжелыми ударами, а лишь иногда легонько шлепает по заднице.
[Профиль] [ЛС]
Показать сообщения:    
Ответить на тему

Текущее время: Сегодня 14:04

Часовой пояс: GMT + 4



Вы не можете начинать темы
Вы не можете отвечать на сообщения
Вы не можете редактировать свои сообщения
Вы не можете удалять свои сообщения
Вы не можете голосовать в опросах
Вы не можете прикреплять файлы к сообщениям
Вы не можете скачивать файлы