Судьба: Апокриф / Fate: Apocrypha [2017] (Серии 1- 12 из 25) (ААсай Ёсиюки) [Приключения, фэнтези, мультсериал, аниме , HDTVRip-AVC 720р] [MVO] [Anidub , Jam & Trina D] [DD5.1] [RusSub + Оригинал]

Ответить на тему
 
Автор Сообщение

Nikolai.Baranov ®

Пол:

Стаж: 4 месяца 24 дня

Сообщений: 25

Откуда: Красногорск

Пост Пост: #1 от 07-Сен-2017 19:28

[Цитировать]

--Судьба: Апокриф / Fate: Apocrypha Серии 1- 12 из 25-- --Год выпуска: 2017
Выпущено: Япония ,
Жанр: Приключения, фэнтези, мультсериал, аниме
Серии: 1- 12
Количество серий в сезоне: 25
Продолжительность: 00:24:00
Озвучка 1: Любительский многоголосый - (Anidub) Jam & Trina D
Озвучка 2: Профессиональный многоголосый - Японский -Оригинал
Субтитры: Русские (Софтсаб)--[url=hhttp://www.world-art.ru/animation/animation.php?id=9092] Рейтинг на World Art[/url] Рейтинг на AniDB Рейтинг на MyAnimeList--Режиссер: Асай Ёсиюки--В ролях: Нацуки Ханаэ, Маая Сакамото, Коки Утияма, Миюки Савасиро, Саори Хаями, Кодзи Юса, Макото Фурукава, Тэцу Инада, Сатоси Цуруока, Кэй Синдо, Дзюнъити Сувабэ, Сюнсукэ Такэути, Рётаро Окиаю, Руми Окубо, Мицуру Миямото, Ай Нонака, Сакура Тангэ, Кэндзи Номура, Нобуюки Хияма, Тинацу Акасаки, Юсукэ Кобаяси, Тору Окава, Сидзука Исигами, Эмири Като, Май Накахара-- События этого произведения происходят в мире, параллельном мирам аниме "Судьба: Ночь схватки” и "Судьба: Начало”. Вам придётся представить, что события этих аниме так никогда и не произошли. В Третьей войне Святого Грааля дом Айнцберн вызывает Правителя вместо Мстителя. Святой Грааль из города Фуюки попадает в Румынию, чему напрямую способствует семья Иггдмилления, которая и похищает Святой Грааль. Они решают не скрывать сей факт и открыто заявляют, что именно они теперь владельцы Святого Грааля. Но разве кто-то станет просто так мириться с этим? Если Святой Грааль не у нас, значит его нужно отобрать! Таким образом, город под названием Трифас всколыхнула очередная война. На этот раз противостоят друг друг две фракции: Красная и Чёрная, в каждой из которых по семь Слуг. В Чёрной Фракции состоит собственно семья Иггдмилления, защищающая своё приобретение. Красная Фракция собралась из посланников Ассоциации Магов, они хотят освободить Грааль. Но и сам Святой Грааль решил не оставаться в стороне и призвал собственного Слугу. Чем же закончится очередная заварушка?-- --Качество : HDTVRip-AVC 720р
Формат: MKV
Видео кодек: H264
Видео: 2523Кбит/сек,1280х720(16.9)(16.9),в 23.976кадр/сек,AVC(High@L4.1)(CABAC/4 Ref Frames)
Аудио Кодек:AC3
Аудио #1:AC3 , 192 Kbps, 48.0 KHz, 6 ch- -(Anidub)Jam & Trina D -Русский
Аудио #2: AC3, 192 Kbps, 48.0 KHz,6 ch - - Японский -Оригинал--

Доп. информация:

Русская звуковая дорожка сделана путем наложения чистого голоса озвучивателей на центральный канал оригинальной дорожки. Качество идентично английской звуковой дорожке.
--

Список эпизодов


01. Apocrypha: Grail Contest
02. The Saint`s Departure
03. Fate Begins to Move
04. Price of Life, Redemption of Death
05. Voice of Heaven
06. Knight of Rebellion
07. Where Freedom Lies
08. Onset of Warfare
09. One Hundred Flames and One Hundred Flowers
10. Scatter with the Flowers
11. Eternal Radiance
12. The Saint`s Return
--

MediaInfo

Общее
Уникальный идентификатор : 170436478612871679258895516171180580670 (0x8038DF2CD1D8323AA5BA433B9DFE1F3E)
Полное имя : C:\ХОББИ\ПИРАТИЯ(PIRATIYA)\СУДЬБА АПОКРИФ (Fate Apocrypha)\Fate_Apocrypha_2017_S01_Rus[AniDub_JAM_Trina_D]_Jap_DD5.1_N.B_HDTVRip_720p\Fate_Apocrypha_2017_S01E01_Rus[AniDub_JAM_Trina_D]_Jap_DD5.1_N.B_HDTVRip_720p.mkv
Формат : Matroska
Версия формата : Version 4 / Version 2
Размер файла : 499 Мбайт
Продолжительность : 23 м. 59 с.
Общий поток : 2909 Кбит/сек
Название фильма : Fate Apocrypha S01E01 @ Nikolai.Baranov & PIRATIYA
Дата кодирования : UTC 2017-09-07 10:23:11
Программа кодирования : mkvmerge v15.0.0 ('Duel with the Devil') 64-bit
Библиотека кодирования : libebml v1.3.5 + libmatroska v1.4.5
Видео
Идентификатор : 1
Формат : AVC
Формат/Информация : Advanced Video Codec
Профиль формата : High@L4.1
Параметр CABAC формата : Да
Параметр RefFrames формата : 4 кадра
Идентификатор кодека : V_MPEG4/ISO/AVC
Продолжительность : 23 м. 59 с.
Битрейт : 2523 Кбит/сек
Ширина : 1280 пикселей
Высота : 720 пикселей
Соотношение сторон : 16:9
Режим частоты кадров : Постоянный
Частота кадров : 23,976 (24000/1001) кадра/сек
Цветовое пространство : YUV
Субдискретизация насыщенности : 4:2:0
Битовая глубина : 8 бит
Тип развёртки : Прогрессивная
Бит/(Пиксели*Кадры) : 0.114
Размер потока : 433 Мбайт (87%)
Заголовок : Fate_Apocrypha_2017_S01E01_Rus[AniDub_JAM_Trina_D]_Jap_DD5.1_N.B_HDTVRip_720p
Библиотека кодирования : x264 core 129 r2245+729M 1a52e03
Настройки программы : cabac=1 / ref=4 / deblock=1:1:-1 / analyse=0x3:0x113 / me=umh / subme=9 / psy=1 / fade_compensate=0.00 / psy_rd=1.00:0.00 / mixed_ref=1 / me_range=24 / chroma_me=1 / trellis=2 / 8x8dct=1 / cqm=0 / deadzone=21,11 / fast_pskip=1 / chroma_qp_offset=-2 / threads=8 / lookahead_threads=1 / sliced_threads=0 / nr=0 / decimate=1 / interlaced=0 / bluray_compat=0 / constrained_intra=0 / fgo=0 / bframes=9 / b_pyramid=2 / b_adapt=2 / b_bias=0 / direct=1 / weightb=1 / open_gop=0 / weightp=2 / keyint=240 / keyint_min=24 / scenecut=40 / intra_refresh=0 / rc=crf / mbtree=0 / crf=17.5 / qcomp=0.72 / qpmin=0 / qpmax=69 / qpstep=4 / ip_ratio=1.40 / pb_ratio=1.30 / aq=1:0.85
Язык : Russian
Default : Да
Forced : Нет
Цветовой диапазон : Limited
Основные цвета : BT.709
Характеристики трансфера : BT.709
Коэффициенты матрицы : BT.709
Аудио #1
Идентификатор : 4
Формат : AC-3
Формат/Информация : Audio Coding 3
Параметр Endianness формата : Big
Идентификатор кодека : A_AC3
Продолжительность : 23 м. 59 с.
Вид битрейта : Постоянный
Битрейт : 192 Кбит/сек
Каналы : 6 каналов
Расположение каналов : Front: L C R, Side: L R, LFE
Частота : 48,0 КГц
Частота кадров : 31,250 кадров/сек (1536 SPF)
Битовая глубина : 16 бит
Метод сжатия : С потерями
Размер потока : 33,0 Мбайт (7%)
Заголовок : MVO AniDub DD5.1@192kbps
Язык : Russian
ServiceKind/String : Complete Main
Default : Да
Forced : Нет
Аудио #2
Идентификатор : 5
Формат : AC-3
Формат/Информация : Audio Coding 3
Параметр Endianness формата : Big
Идентификатор кодека : A_AC3
Продолжительность : 23 м. 59 с.
Вид битрейта : Постоянный
Битрейт : 192 Кбит/сек
Каналы : 6 каналов
Расположение каналов : Front: L C R, Side: L R, LFE
Частота : 48,0 КГц
Частота кадров : 31,250 кадров/сек (1536 SPF)
Битовая глубина : 16 бит
Метод сжатия : С потерями
Размер потока : 33,0 Мбайт (7%)
Заголовок : Original DD5.1@192kbps
Язык : Japanese
ServiceKind/String : Complete Main
Default : Нет
Forced : Нет
Текст #1
Идентификатор : 2
Формат : ASS
Идентификатор кодека : S_TEXT/ASS
Идентификатор кодека/Информация : Advanced Sub Station Alpha
Продолжительность : 23 м. 28 с.
Битрейт : 205 бит/сек
ElementCount : 337
Метод сжатия : Без потерь
Размер потока : 35,4 Кбайт (0%)
Заголовок : Rus - AniPlay
Язык : Russian
Default : Да
Forced : Нет
Текст #2
Идентификатор : 3
Формат : ASS
Идентификатор кодека : S_TEXT/ASS
Идентификатор кодека/Информация : Advanced Sub Station Alpha
Продолжительность : 23 м. 30 с.
Битрейт : 203 бит/сек
ElementCount : 336
Метод сжатия : Без потерь
Размер потока : 35,0 Кбайт (0%)
Заголовок : Rus - SovetRomantica
Язык : Russian
Default : Нет
Forced : Нет
Меню
00:00:00.000 : en:Глава 01 / en:Глава 01 / en:Глава 01 / en:Глава 01 / en:Глава 01 / en:Глава 01
--

Скриншоты

-- -Внимание! Раздача пополняется по мере выхода новых серий!--

Внимание! Раздача ведётся путём добавления новых серий!

Раздача ведётся путём добавления новых серий; при каждом добавлении создётся новый торрент.
Чтобы начать докачку новой серии, пользователям необходимо сделать следующее:
1. остановить скачивание,
2. удалить старый торрент у себя из клиента (старые серии удалять не надо),
3. скачать новый торрент и запустить его у себя в клиенте вместо старого, при этом указать клиенту путь в старую папку, куда и должно происходить скачивание новых серий.
Ваш клиент при этом должен произвести хеширование (проверку) старой папки (если не производит сам - помогите ему сделать это), и будет докачивать только те серии которых у вас ещё нет. Старые серии при этом не удаляются, а продолжают раздаваться!
Eсли вы уже удалили старые серии, то предотвратить повторную закачку старых серий можно, отжав галочку в соответсвующих местах при запуске нового торрента. По возможности, желательно не удалять старые серии как можно дольше, чтобы релизёр не столько продолжал раздавать старые серии, а смог сконцентрироваться на новых.
Совет для тех, кто не хочет ждать перехеширования:
Создайте ещё одну папку рядом с папкой сериала (рядом, а не в ней!!!). Каждую новую серию после удачной загрузки копируйте в новую папку так чтобы ваша основная папка всегда была пуста. Когда ваш новый торрент предложит вам закачать все файлы, выберете только последнюю. Для сидирования же укажите адрес новой папки.
Как закачать отдельный файл из торрента или докачать ранее пропущенные файлы торрента!

Как закачать отдельный файл

1. Открыть торрент
2. Снять галки с тех файлов торрента, которые мы не хотим закачивать. Оставляем только на нужных нам файлах (файле).
3. Нажать О.К.
В клиенте utorrent
Инструкция
1) Открыть торрент

2) Снять галки с тех файлов торрента, которые мы не хотим закачивать:
* либо вручную, снимая с каждого файла галку( скрин №1)
* либо, нажав кнопку "Снять метки (Select None)", сняв сразу со всех файлов(скрин №2)
№1

№2

Оставляем только на нужных нам файлах (файле).

3)Нажать О.К
-- -- --Внимание!!! 30.09. 2017. РАЗДАЧА ОБНОВЛЕНА. ДОБАВЛЕНА 12 СЕРИЯ. ОБНОВИТЕ ТОРЕНТ ФАЙЛ. ПРИЯТНОГО ПРОСМОТРА . --Релиз от: Nikolai.Baranov & PIRATIYA -- -- -- --
Скачать

Скачать торрент!

Как скачивать? · Что такое торрент? · Рейтинг и ограничения

Сайт не распространяет и не хранит электронные версии произведений, а лишь предоставляет доступ к создаваемому пользователями каталогу ссылок на торрент-файлы, которые содержат только списки хеш-сумм


_________________

Легко быть оптимистом, когда судьба не валит с ног тяжелыми ударами, а лишь иногда легонько шлепает по заднице.
[Профиль] [ЛС]
Показать сообщения:    
Ответить на тему

Текущее время: Сегодня 07:15

Часовой пояс: GMT + 4



Вы не можете начинать темы
Вы не можете отвечать на сообщения
Вы не можете редактировать свои сообщения
Вы не можете удалять свои сообщения
Вы не можете голосовать в опросах
Вы не можете прикреплять файлы к сообщениям
Вы не можете скачивать файлы