Неадекватные люди (Роман Каримов) [2010, Россия, комедия, DVDRip]

Ответить на тему
 
Автор Сообщение

user ®

Стаж: 7 лет 7 месяцев

Сообщений: 20008

Пост Пост: #1 от 01-Фев-2011 01:43

[Цитировать]

Неадекватные люди«Биться головой о стенку гораздо веселее, когда знаешь, что за ней скрывается родственная душа» Кинокомпания: Продюсерский центр «Парадиз», Cinema Prime Film
Жанр: комедия
Год выпуска: 2010
Продолжительность: 01:41:54
Режиссер: Роман Каримов
В ролях: Ингрид Олеринская, Назар Ас-Самаррай, Артем Душкин, Полина Иосилевич, Илья Любимов, Юлия Такшина, Влад Топалов, Анастасия Федоркова, Евгений Цыганов, Марина Зайцева...
Описание: Тихий и воспитанный Виталик пытается начать жизнь с нуля в новом городе. Но странным образом ему на пути попадаются одни сумасшедшие. Его соседкой по лестничной площадке оказывается взбалмошная Кристина, стремящаяся переделать его из задрота в нормального мужика, на новой работе атакует похотливая начальница и даже психолог, помогающий ему совладать со всем этим — и тот оказывается садо-мазохистом. Виталик кажется единственным адекватным человеком здесь. Но так ли это на самом деле?


Тип релиза: DVDRip,
Контейнер: AVI
Видео: 720x400 (16:9), 25.000 fps, XVID ~1655 kbps avg, 0.230 bit/pixel
Аудио : 48 kHz, AC3, 6 ch, 384.00 kbps Constant

MediaInfo

Общее
Полное имя : Neadekvatnie.ludi.2010.O.DVDRip.avi
Формат : AVI
Формат/Информация : Audio Video Interleave
Размер файла : 1,46 Гбайт
Продолжительность : 1 ч. 41 м.
Общий поток : 2049 Кбит/сек
Программа кодирования : VirtualDubMod 1.5.10.3 (build 2550/release)
Библиотека кодирования : VirtualDubMod build 2550/release
Видео
Идентификатор : 0
Формат : MPEG-4 Visual
Профиль формата : Advanced Simple@L5
Параметр BVOP формата : Да
Параметр QPel формата : Нет
Параметр GMC формата : Без точки перехода
Параметр матрицы формата : Выборочная
Идентификатор кодека : XVID
Идентификатор кодека/Подсказка : XviD
Продолжительность : 1 ч. 41 м.
Битрейт : 1655 Кбит/сек
Ширина : 720 пикс.
Высота : 400 пикс.
Соотношение сторон : 16:9
Частота кадров : 25,000 кадр/сек
Цветовое пространство : YUV
Подвыборка цветности : 4:2:0
Битовая глубина : 8 бит
Тип развёртки : Прогрессивная
Метод сжатия : С потерями
Бит/(Пиксели*Кадры) : 0.230
Размер потока : 1,18 Гбайт (81%)
Библиотека кодирования : XviD 58
Аудио
Идентификатор : 1
Формат : AC-3
Формат/Информация : Audio Coding 3
Расширение режима : CM (complete main)
Идентификатор кодека : 2000
Продолжительность : 1 ч. 41 м.
Вид битрейта : Постоянный
Битрейт : 384 Кбит/сек
Канал(ы) : 6 канала(ов)
Расположение каналов : Front: L C R, Side: L R, LFE
Частота : 48,0 КГц
Битовая глубина : 16 бит
Метод сжатия : С потерями
Размер потока : 280 Мбайт (19%)
Выравнивание : Разделение по промежуткам
Продолжительность промежутка : 40 мс. (1,00 видеокадр)
Время предзагрузки промежутка : 500 ms

Скриншот с названием

Скриншоты

Скачать

Скачать торрент!

Как скачивать? · Что такое торрент? · Рейтинг и ограничения

Сайт не распространяет и не хранит электронные версии произведений, а лишь предоставляет доступ к создаваемому пользователями каталогу ссылок на торрент-файлы, которые содержат только списки хеш-сумм

[Профиль] [ЛС]

GERIK

Стаж: 5 лет 7 месяцев

Сообщений: 2

Пост Пост: #2 от 10-Апр-2011 22:52 (спустя 2 месяца 9 дней)

[Цитировать]

Советую! Фильм для отдыха!! ay
[Профиль] [ЛС]

Timir

Пол:

Стаж: 5 лет 8 месяцев

Сообщений: 55

Откуда: Vladimir

Пост Пост: #3 от 21-Апр-2011 02:45 (спустя 10 дней)

[Цитировать]

Хороший фильмец!!! Реально!!!
[Профиль] [ЛС]
Показать сообщения:    
Ответить на тему

Текущее время: Сегодня 20:20

Часовой пояс: GMT + 4



Вы не можете начинать темы
Вы не можете отвечать на сообщения
Вы не можете редактировать свои сообщения
Вы не можете удалять свои сообщения
Вы не можете голосовать в опросах
Вы не можете прикреплять файлы к сообщениям
Вы не можете скачивать файлы