Турист / The Tourist (Флориан Хенкель фон Доннерсмарк / Florian Henckel von Donnersmarck) [2010, США, Франция, боевик, триллер, драма, DVDRip-AVC] DUB Sub rus + original eng

Ответить на тему
 
Автор Сообщение

user ®

Стаж: 7 лет 7 месяцев

Сообщений: 20008

Пост Пост: #1 от 01-Фев-2011 01:25

[Цитировать]

Турист / The Tourist
Страна: США, Франция
Жанр: боевик, триллер, драма
Год выпуска: 2010
Продолжительность: 01:39:22
Перевод: Профессиональный (дублированный)
Cубтитры: русские
Оригинальная аудиодорожка: английский
Режиссер: Флориан Хенкель фон Доннерсмарк / Florian Henckel von Donnersmarck
В ролях: Джонни Депп, Анджелина Джоли, Пол Беттани, Стивен Беркофф, Тимоти Далтон, Руфус Сьюэлл, Игорь Жижикин, Кристиан Де Сика, Алессио Бони, Даниэле Печчи
Описание: Американский турист Фрэнк приезжает в Италию, чтобы залечить душевную рану. В Венеции он знакомится с необычной женщиной по имени Элиза. Израненное сердце, похоже, готово сдаться новой возлюбленной. Однако планы Фрэнка и Элизы грубейшим образом нарушает водоворот интриг и опасностей.
Доп. информация:Мировая премьера: 8 декабря 2010Российская премьера: 5 января 2011, «WDSSPR»
Семпл 1 на multi-up
Семпл 2 на multi-up
Качество видео: DVDRip-AVC
Формат видео: MKV
Видео: кодек: x264, Frame rate: 25.000 fps, размер кадра: 720x424@1024x424, битрейт: 2316 кб/с
Аудио #1: язык: русский, перевод: дублированный (дубляж), кодек: AC3 5.1, битрейт: 384 кб/с
Аудио #2: язык: английский, перевод: оригинал, кодек: AC3 5.1, битрейт: 384 кб/с
Субтитры #1: тип: вшитые отключаемые, язык: русский (Forced For French), формат: S_TEXT/UTF8
Субтитры #2: тип: вшитые отключаемые, язык: английский (Forced For French), формат: S_TEXT/UTF8
Субтитры #3: тип: вшитые отключаемые, язык: английский, формат: S_TEXT/UTF8

MediaInfo

General
Complete name : The_Tourist.2010.DVDRip.AVCbyGUree.mkv
Format : Matroska
File size : 2.18 GiB
Duration : 1h 39mn
Overall bit rate : 3 147 Kbps
Movie name : -=GUree=-
Encoded date : UTC 2011-01-28 00:20:14
Writing application : mkvmerge v4.4.0 ('Die Wiederkehr') сборка от Oct 31 2010 21:52:48
Writing library : libebml v1.0.0 + libmatroska v1.0.0
Video
ID : 1
Format : AVC
Format/Info : Advanced Video Codec
Format profile : High@L4.1
Format settings, CABAC : Yes
Format settings, ReFrames : 8 frames
Codec ID : V_MPEG4/ISO/AVC
Duration : 1h 39mn
Bit rate : 2 378 Kbps
Width : 720 pixels
Height : 424 pixels
Display aspect ratio : 2.40:1
Frame rate : 25.000 fps
Color space : YUV
Chroma subsampling : 4:2:0
Bit depth : 8 bits
Scan type : Progressive
Bits/(Pixel*Frame) : 0.312
Stream size : 1.61 GiB (74%)
Writing library : x264 core 112 r1834 a51816a
Encoding settings : cabac=1 / ref=8 / deblock=1:-2:-1 / analyse=0x3:0x113 / me=tesa / subme=10 / psy=1 / psy_rd=1.00:0.40 / mixed_ref=1 / me_range=32 / chroma_me=1 / trellis=2 / 8x8dct=1 / cqm=0 / deadzone=21,11 / fast_pskip=0 / chroma_qp_offset=-4 / threads=6 / sliced_threads=0 / nr=0 / decimate=0 / interlaced=0 / constrained_intra=0 / bframes=10 / b_pyramid=2 / b_adapt=2 / b_bias=0 / direct=3 / weightb=1 / open_gop=0 / weightp=2 / keyint=250 / keyint_min=25 / scenecut=40 / intra_refresh=0 / rc_lookahead=60 / rc=2pass / mbtree=1 / bitrate=2378 / ratetol=1.0 / qcomp=0.75 / qpmin=0 / qpmax=51 / qpstep=4 / cplxblur=20.0 / qblur=0.5 / vbv_maxrate=50000 / vbv_bufsize=50000 / ip_ratio=1.40 / aq=1:0.90 / nal_hrd=none
Audio #1
ID : 2
Format : AC-3
Format/Info : Audio Coding 3
Mode extension : CM (complete main)
Codec ID : A_AC3
Duration : 1h 39mn
Bit rate mode : Constant
Bit rate : 384 Kbps
Channel(s) : 6 channels
Channel positions : Front: L C R, Side: L R, LFE
Sampling rate : 48.0 KHz
Bit depth : 16 bits
Compression mode : Lossy
Stream size : 273 MiB (12%)
Title : AC3 5.1 384Kb/s
Language : Russian
Audio #2
ID : 3
Format : AC-3
Format/Info : Audio Coding 3
Mode extension : CM (complete main)
Codec ID : A_AC3
Duration : 1h 39mn
Bit rate mode : Constant
Bit rate : 384 Kbps
Channel(s) : 6 channels
Channel positions : Front: L C R, Side: L R, LFE
Sampling rate : 48.0 KHz
Bit depth : 16 bits
Compression mode : Lossy
Delay relative to video : 360ms
Stream size : 273 MiB (12%)
Title : AC3 5.1 384Kb/s
Language : English
Text #1
ID : 4
Format : UTF-8
Codec ID : S_TEXT/UTF8
Codec ID/Info : UTF-8 Plain Text
Title : Forced (For French)
Language : Russian
Text #2
ID : 5
Format : UTF-8
Codec ID : S_TEXT/UTF8
Codec ID/Info : UTF-8 Plain Text
Title : Forced (For French)
Language : English
Text #3
ID : 6
Format : UTF-8
Codec ID : S_TEXT/UTF8
Codec ID/Info : UTF-8 Plain Text
Title : Full
Language : English

Скриншоты

Скачать

Скачать торрент!

Как скачивать? · Что такое торрент? · Рейтинг и ограничения

Сайт не распространяет и не хранит электронные версии произведений, а лишь предоставляет доступ к создаваемому пользователями каталогу ссылок на торрент-файлы, которые содержат только списки хеш-сумм

[Профиль] [ЛС]
Показать сообщения:    
Ответить на тему

Текущее время: Сегодня 21:55

Часовой пояс: GMT + 4



Вы не можете начинать темы
Вы не можете отвечать на сообщения
Вы не можете редактировать свои сообщения
Вы не можете удалять свои сообщения
Вы не можете голосовать в опросах
Вы не можете прикреплять файлы к сообщениям
Вы не можете скачивать файлы