В компании мужчин / The Company Men (Джон Уэллс / John Wells) [2010, США, Великобритания, драма, DVDScr] VO (VadimNaz) + Original

Ответить на тему
 
Автор Сообщение

user ®

Стаж: 7 лет 7 месяцев

Сообщений: 20008

Пост Пост: #1 от 18-Янв-2011 11:53

[Цитировать]

В компании мужчин / The Company Men
Страна: США, Великобритания
Жанр: драма
Год выпуска: 2010
Продолжительность: 01:44:37
Перевод: Любительский (одноголосый, закадровый)
Оригинальная аудиодорожка: английская
Cубтитры: нет
Режиссер: Джон Уэллс / John Wells
В ролях: Бен Аффлек, Томми Ли Джонс, Кевин Костнер, Томас Ретт Ки, Крэйг Мэтерс, Гари Галоун, Крис Купер, Сюзанн Рико, Adrianne Krstansky, Льюис Д. Вилер, Селеста Олива
Описание: Этот фильм расскажет о влиянии экономического кризиса на судьбы людей и компаний. Аффлек сыграет энергичного карьериста, который получает крупный пост в солидной корпорации, но совсем скоро теряет и шестизначную зарплату, и новенький «Порше», когда оказывается на улице. Ему помогает родственник в исполнении Кевина Костнера, который нанимает уволенного бизнесмена к себе на работу в строительную фирму.

IMDb: 6.9/10 (883 votes)
Мировая премьера: 22 января 2010
Скачать сэмпл
Качество видео: DVDScreener [DVDR Demedic - XviD Rx]
Формат видео: AVI
Видео: 720x400 (1.80:1), 23.976 fps, XviD MPEG-4 ~1411 kbps avg, 0.20 bit/pixel
Аудио 1: 48 kHz, AC3 Dolby Digital, 2/0 (L,R) ch, ~192 kbps (Русский)
Аудио 2: 48 kHz, AC3 Dolby Digital, 3/2 (L,C,R,l,r) + LFE ch, ~448 kbps (Оригинал)

MediaInfo

Video
ID : 0
Format : MPEG-4 Visual
Format profile : Advanced Simple@L5
Format settings, BVOP : Yes
Format settings, QPel : No
Format settings, GMC : No warppoints
Format settings, Matrix : Default (H.263)
Muxing mode : Packed bitstream
Codec ID : XVID
Codec ID/Hint : XviD
Duration : 1h 44mn
Bit rate : 1 412 Kbps
Width : 720 pixels
Height : 400 pixels
Display aspect ratio : 16:9
Frame rate : 23.976 fps
Color space : YUV
Chroma subsampling : 4:2:0
Bit depth : 8 bits
Scan type : Progressive
Bits/(Pixel*Frame) : 0.204
Stream size : 1.03 GiB (68%)
Writing library : XviD 1.2.1 (UTC 2008-12-04)
Audio #1
ID : 1
Format : AC-3
Format/Info : Audio Coding 3
Mode extension : CM (complete main)
Codec ID : 2000
Duration : 1h 44mn
Bit rate mode : Constant
Bit rate : 192 Kbps
Channel(s) : 2 channels
Channel positions : Front: L R
Sampling rate : 48.0 KHz
Stream size : 144 MiB (9%)
Alignment : Split accross interleaves
Interleave, duration : 42 ms (1.00 video frame)
Interleave, preload duration : 500 ms
Title : Russian (AVO)
Audio #2
ID : 2
Format : AC-3
Format/Info : Audio Coding 3
Mode extension : CM (complete main)
Codec ID : 2000
Duration : 1h 44mn
Bit rate mode : Constant
Bit rate : 448 Kbps
Channel(s) : 6 channels
Channel positions : Front: L C R, Side: L R, LFE
Sampling rate : 48.0 KHz
Stream size : 335 MiB (22%)
Alignment : Split accross interleaves
Interleave, duration : 42 ms (1.00 video frame)
Interleave, preload duration : 500 ms
Title : Original

Скриншоты

Скачать

Скачать торрент!

Как скачивать? · Что такое торрент? · Рейтинг и ограничения

Сайт не распространяет и не хранит электронные версии произведений, а лишь предоставляет доступ к создаваемому пользователями каталогу ссылок на торрент-файлы, которые содержат только списки хеш-сумм

[Профиль] [ЛС]
Показать сообщения:    
Ответить на тему

Текущее время: Сегодня 00:43

Часовой пояс: GMT + 4



Вы не можете начинать темы
Вы не можете отвечать на сообщения
Вы не можете редактировать свои сообщения
Вы не можете удалять свои сообщения
Вы не можете голосовать в опросах
Вы не можете прикреплять файлы к сообщениям
Вы не можете скачивать файлы