О чём говорят мужчины (Дмитрий Дьяченко) [2010, Россия, комедия, BDRip-AVC]

Ответить на тему
 
Автор Сообщение

user ®

Стаж: 7 лет 7 месяцев

Сообщений: 20008

Пост Пост: #1 от 06-Фев-2016 22:03

[Цитировать]

О чём говорят мужчины- Год выпуска: 2010
Жанр: Комедия
Продолжительность: 01:36:32
Навигация по главам: есть (как на Blu-ray)
Перевод: не требуется
Оригинальная аудиодорожка: русский
Субтитры: есть (rus)
Режиссер: Дмитрий Дьяченко
В ролях: Леонид Барац, Ростислав Хаит, Александр Демидов, Камиль Ларин, Нонна Гришаева, Нина Русланова, Сергей Никоненко, Федор Добронравов, Анна Касаткина-Барац, Жанна Фриске
Описание: О чем говорят мужчины? Конечно, о женщинах. Нет, еще о работе, о деньгах, о машинах, о футболе,… но в основном, все-таки, о женщинах. А уж если у них впереди два дня, которые они, вырвавшись из офисов и семей, уехав от всех забот и обязательств, проведут в дороге — два дня, насыщенные событиями и приключениями — то можете быть уверены, что за это время они успеют обсудить немало тем…
И еще. Из этих разговоров — это мы точно знаем — многие женщины узнают о себе очень много нового…

Качество: BDRip-AVC (исходник - Blu-ray|1080p)
Формат: MKV
Видео кодек: H.264
Аудио кодек: AC3
Видео: 1056x568 (1.85:1), 24,000 кадр/сек, 2790 Кбит/сек, 0.194 bit/pixel
Аудио: 48 kHz, AC3 Dolby Digital, 3/2 (L,C,R,l,r) + LFE ch, ~448 kbps avg
Формат субтитров: softsub (SRT)
MediaInfo | x264 log
Format : Matroska
Format version : Version 4 / Version 2
File size : 2.18 GiB
Duration : 1h 36mn
Overall bit rate : 3 239 Kbps
Movie name : О чём говорят мужчины (2010) :: AFM ::
Encoded date : UTC 2016-02-05 22:31:09
Writing application : mkvmerge v8.3.0 ('Over the Horizon') 32bit
Writing library : libebml v1.3.1 + libmatroska v1.4.2
DURATION : 01:30:45.417000000
NUMBER_OF_FRAMES : 1100
NUMBER_OF_BYTES : 98542
_STATISTICS_WRITING_APP : mkvmerge v8.3.0 ('Over the Horizon') 32bit
_STATISTICS_WRITING_DATE_UTC : 2016-02-05 22:31:09
_STATISTICS_TAGS : BPS DURATION NUMBER_OF_FRAMES NUMBER_OF_BYTES
Video
ID : 1
Format : AVC
Format/Info : Advanced Video Codec
Format profile : High@L4.1
Format settings, CABAC : Yes
Format settings, ReFrames : 11 frames
Codec ID : V_MPEG4/ISO/AVC
Duration : 1h 36mn
Bit rate : 2 790 Kbps
Width : 1 056 pixels
Height : 568 pixels
Display aspect ratio : 1.85:1
Frame rate mode : Constant
Frame rate : 24.000 fps
Color space : YUV
Chroma subsampling : 4:2:0
Bit depth : 8 bits
Scan type : Progressive
Bits/(Pixel*Frame) : 0.194
Stream size : 1.84 GiB (84%)
Title : BDRip by AFM [***]
Writing library : x264 core 148 r2638 7599210
Encoding settings : cabac=1 / ref=11 / deblock=1:-3:-3 / analyse=0x3:0x113 / me=umh / subme=11 / psy=1 / psy_rd=1.00:0.10 / mixed_ref=1 / me_range=32 / chroma_me=1 / trellis=2 / 8x8dct=1 / cqm=0 / deadzone=21,11 / fast_pskip=0 / chroma_qp_offset=-3 / threads=6 / lookahead_threads=1 / sliced_threads=0 / nr=0 / decimate=0 / interlaced=0 / bluray_compat=0 / constrained_intra=0 / bframes=14 / b_pyramid=2 / b_adapt=2 / b_bias=0 / direct=3 / weightb=1 / open_gop=0 / weightp=2 / keyint=250 / keyint_min=24 / scenecut=40 / intra_refresh=0 / rc_lookahead=40 / rc=2pass / mbtree=0 / bitrate=2790 / ratetol=1.0 / qcomp=0.65 / qpmin=0 / qpmax=69 / qpstep=4 / cplxblur=20.0 / qblur=0.5 / vbv_maxrate=50000 / vbv_bufsize=62500 / nal_hrd=none / filler=0 / ip_ratio=1.40 / pb_ratio=1.30 / aq=1:0.90 / zones=135555,139010,q=35
Language : Russian
Default : Yes
Forced : No
DURATION : 01:36:32.084000000
NUMBER_OF_FRAMES : 139010
NUMBER_OF_BYTES : 2019404858
_STATISTICS_WRITING_APP : mkvmerge v8.3.0 ('Over the Horizon') 32bit
_STATISTICS_WRITING_DATE_UTC : 2016-02-05 22:31:09
_STATISTICS_TAGS : BPS DURATION NUMBER_OF_FRAMES NUMBER_OF_BYTES
Audio
ID : 2
Format : AC-3
Format/Info : Audio Coding 3
Mode extension : CM (complete main)
Format settings, Endianness : Big
Codec ID : A_AC3
Duration : 1h 36mn
Bit rate mode : Constant
Bit rate : 448 Kbps
Channel(s) : 6 channels
Channel positions : Front: L C R, Side: L R, LFE
Sampling rate : 48.0 KHz
Compression mode : Lossy
Stream size : 309 MiB (14%)
Title : Оригинал AC3 5.1
Language : Russian
Default : Yes
Forced : No
Text
ID : 3
Format : UTF-8
Codec ID : S_TEXT/UTF8
Codec ID/Info : UTF-8 Plain Text
Language : Russian
Default : Yes
Forced : No
Menu
00:00:00.000 : en:00:00:00.000
00:02:51.875 : en:00:02:51.875
00:13:42.875 : en:00:13:42.875
00:23:48.417 : en:00:23:48.417
00:32:05.917 : en:00:32:05.917
00:43:22.958 : en:00:43:22.958
00:54:26.167 : en:00:54:26.167
01:03:57.042 : en:01:03:57.042
01:10:42.083 : en:01:10:42.083
01:18:53.667 : en:01:18:53.667
01:25:03.292 : en:01:25:03.292
01:32:03.042 : en:01:32:03.042
х264
x264 [info]: frame I:1132 Avg QP:18.06 size: 94524
x264 [info]: frame P:32747 Avg QP:21.79 size: 28832
x264 [info]: frame B:105131 Avg QP:22.96 size: 9210
x264 [info]: consecutive B-frames: 2.9% 4.7% 9.3% 23.6% 17.1% 33.7% 4.2% 1.6% 1.3% 0.3% 0.3% 0.3% 0.2% 0.1% 0.4%
x264 [info]: mb I I16..4: 10.9% 66.1% 23.0%
x264 [info]: mb P I16..4: 1.4% 12.2% 1.9% P16..4: 32.6% 34.5% 10.9% 0.0% 0.0% skip: 6.5%
x264 [info]: mb B I16..4: 0.2% 1.2% 0.2% B16..8: 35.0% 18.8% 3.1% direct: 5.9% skip:35.6% L0:41.2% L1:44.2% BI:14.6%
x264 [info]: 8x8 transform intra:76.2% inter:64.6%
x264 [info]: direct mvs spatial:96.9% temporal:3.1%
x264 [info]: coded y,uvDC,uvAC intra: 79.4% 81.9% 58.4% inter: 25.1% 26.0% 9.4%
x264 [info]: i16 v,h,dc,p: 28% 19% 10% 44%
x264 [info]: i8 v,h,dc,ddl,ddr,vr,hd,vl,hu: 11% 8% 9% 9% 13% 13% 13% 11% 13%
x264 [info]: i4 v,h,dc,ddl,ddr,vr,hd,vl,hu: 15% 10% 8% 8% 13% 13% 12% 10% 12%
x264 [info]: i8c dc,h,v,p: 36% 27% 19% 18%
x264 [info]: Weighted P-Frames: Y:5.5% UV:3.2%
x264 [info]: ref P L0: 46.9% 13.2% 16.9% 5.5% 4.8% 3.3% 3.1% 1.7% 1.6% 1.3% 1.4% 0.2% 0.0%
x264 [info]: ref B L0: 74.4% 11.0% 5.2% 2.8% 2.0% 1.7% 1.3% 0.9% 0.5% 0.3%
x264 [info]: ref B L1: 93.1% 6.9%
x264 [info]: kb/s:2789.19
Скриншоты
с названием
Скачать

Скачать торрент!

Как скачивать? · Что такое торрент? · Рейтинг и ограничения

Сайт не распространяет и не хранит электронные версии произведений, а лишь предоставляет доступ к создаваемому пользователями каталогу ссылок на торрент-файлы, которые содержат только списки хеш-сумм

[Профиль] [ЛС]
Показать сообщения:    
Ответить на тему

Текущее время: Сегодня 10:48

Часовой пояс: GMT + 4



Вы не можете начинать темы
Вы не можете отвечать на сообщения
Вы не можете редактировать свои сообщения
Вы не можете удалять свои сообщения
Вы не можете голосовать в опросах
Вы не можете прикреплять файлы к сообщениям
Вы не можете скачивать файлы