Возвращение льва / The Return of Lion / Srimannarayana (Рави С. Кумар / Ravi C. Kumar) [2012, Индия, Драма, боевик, WEBRip] DVO (Ульпаней Эльром)

Ответить на тему
 
Автор Сообщение

user ®

Стаж: 12 лет

Сообщений: 15092

Пост Пост: #1 от 05-Фев-2016 23:33

[Цитировать]

Возвращение льва / The Return of Lion / Srimannarayana
Страна: Индия
Жанр: Драма, боевик
Год выпуска: 2012
Продолжительность: 02:15:15
Перевод: Профессиональный (двухголосый закадровый) Ульпаней Эльром
Cубтитры: нет
Режиссер: Рави С. Кумар / Ravi C. Kumar
В ролях: Балакришна, Парвати Мелтон, Иша Чавла, Шриниваса Рао Кота, Суреш, Винод Кумар, Виджаякумар, Джаяпракаш Редди, Кришна Бхагаван, Аахутхи Прасад, Судха, Дхармаварапу Субраманьям, М.С. Нараяна, Раджа Равиндра, Рао Рамеш, Мохан Дувваси, Нагиниду, Суприт
Описание: Отважный журналист решил вывести на чистую воду банду, наживающуюся на бедных крестьянах.
Доп. информация: Запись звука с т/к Bollywood HD и его сведение - oktober
Сэмпл: http://multi-up.com/1087772
Качество видео: WEBRip
Формат видео: AVI
Видео: XviD build 50, 720x304 (2.37:1), 24 fps, 1249 kbps avg
Аудио: AC3 Dolby Digital, 48 kHz, 2/0 (L,R) ch, 192.00 kbps
MediaInfo
General
Complete name : F:\Vozvraschenie.leva.2012.WEBRip.avi
Format : AVI
Format/Info : Audio Video Interleave
File size : 1.37 GiB
Duration : 2h 15mn
Overall bit rate : 1 451 Kbps
Writing application : VirtualDubMod 1.5.10.3 | www.virtualdub-fr.org || (build 2550/release)
Writing library : VirtualDubMod build 2550/release
Video
ID : 0
Format : MPEG-4 Visual
Format profile : AdvancedSimple@L5
Format settings, BVOP : Yes
Format settings, QPel : No
Format settings, GMC : No warppoints
Format settings, Matrix : Default (MPEG)
Codec ID : XVID
Codec ID/Hint : XviD
Duration : 2h 15mn
Bit rate : 1 249 Kbps
Width : 720 pixels
Height : 304 pixels
Display aspect ratio : 2.35
Frame rate : 24.000 fps
Resolution : 24 bits
Colorimetry : 4:2:0
Scan type : Progressive
Bits/(Pixel*Frame) : 0.238
Stream size : 1.18 GiB (86%)
Writing library : XviD 1.2.1 (UTC 2008-12-04)
Audio
ID : 1
Format : AC-3
Format/Info : Audio Coding 3
Codec ID : 2000
Duration : 2h 15mn
Bit rate mode : Constant
Bit rate : 192 Kbps
Channel(s) : 2 channels
Channel positions : L R
Sampling rate : 48.0 KHz
Stream size : 186 MiB (13%)
Alignment : Split accross interleaves
Interleave, duration : 42 ms (1.00 video frame)
Interleave, preload duration : 500 ms
Скриншот c названием фильма Скриншоты
Скачать

Скачать торрент! Возвращение льва / The Return of Lion / Srimannarayana (Рави С. Кумар / Ravi C. Kumar) [2012, Индия, Драма, боевик, WEBRip] DVO (Ульпаней Эльром)

Как скачивать? · Что такое торрент? · Рейтинг и ограничения

Сайт не распространяет и не хранит электронные версии произведений, а лишь предоставляет доступ к создаваемому пользователями каталогу ссылок на торрент-файлы, которые содержат только списки хеш-сумм

[Профиль] [ЛС]
Показать сообщения:    
Ответить на тему

Текущее время: Сегодня 06:33

Часовой пояс: GMT + 4



Вы не можете начинать темы
Вы не можете отвечать на сообщения
Вы не можете редактировать свои сообщения
Вы не можете удалять свои сообщения
Вы не можете голосовать в опросах
Вы не можете прикреплять файлы к сообщениям
Вы не можете скачивать файлы