Король Лев 3: Хакуна матата / The Lion King 1 1/2 / The Lion King 3: Hakuna Matata (Брэдли Рэймонд / Bradley Raymond) [2004 г., мультфильм, комедия, приключения, семейный, BDRip-AVC] Dub + DVO + AVO (Живов, Алексеев) + Sub (Rus, Ukr, Eng)

Ответить на тему
 
Автор Сообщение

user ®

Стаж: 13 лет

Сообщений: 15041

Пост Пост: #1 от 05-Фев-2016 02:24

[Цитировать]

-Король Лев 3: Хакуна матата / The Lion King 1 1/2 / The Lion King 3: Hakuna Matata«You don't know the ½ of it!» Страна: Австралия, США
Студия: DisneyToon Studios, Walt Disney Animation Australia, Walt Disney Television Animation
Жанр: мультфильм, комедия, приключения, семейный
Год выпуска: 2004
Продолжительность: 01:16:14-Перевод 1: Профессиональный (полное дублирование) BD EUR
Перевод 2: Профессиональный (двухголосый, закадровый)
Перевод 3: Авторский (одноголосый, закадровый) Юрий Живов
Перевод 4: Авторский (одноголосый, закадровый) Антон Алексеев
Оригинальная аудиодорожка: английская
Субтитры: русские, украинские, английские
Режиссер: Брэдли Рэймонд / Bradley Raymond
Роли озвучивали: Натан Лэйн, Эрни Сабелла, Джули Кавнер, Джерри Стиллер, Мэттью Бродерик, Роберт Гийом, Мойра Келли, Вупи Голдберг, Чич Марин, Джим Каммингс...
О мультфильме: Главными героями мультфильма станут всеобщие любимцы Тимон и Пумба! Вы узнаете об этих закадычных друзьях много нового, например, о том, как они впервые встретились, что за потрясающие приключения вместе прожили и на какие удивительные подвиги их сподвигло знаменитое знакомство с будущем королем саванны Симбой.
А также познакомитесь с новыми забавными героями, которые точно не дадут вам скучать — заботливой мамочкой Тимона и его ужасно саркастичным дядей Максом! Скучно не будет!-
Сэмпл: скачать-Релиз от -
Автор рипа: Elheym
Качество: BDRip-AVC (источник: [url=http://***/forum/viewtopic.php?t=3816928]xfiles[/url] / Blu-ray Remux [The.Lion.King.3.Hakuna.Matata.2004.1080p.BDRemux.rutracker] / 1080p)
Контейнер: MKV
Видео: 1098x648 (5:3), 23.976 fps, MPEG-4 AVC, ~3358 kbps avg, 0.197 bit/pixel
Аудио #1: Русский: AC3, 5.1, 48 kHz, ~448 Кбит/с | Профессиональный (полное дублирование) BD EUR |
Аудио #2: Русский: AC3, 5.1, 48 kHz, ~384 Кбит/с | Профессиональный (двухголосый, закадровый) |
Аудио #3: Русский: AC3, 5.1, 48 kHz, ~448 Кбит/с | Авторский (одноголосый, закадровый) Юрий Живов |
Аудио #4: Русский: AC3, 5.1, 48 kHz, ~448 Кбит/с | Авторский (одноголосый, закадровый) Антон Алексеев |
Аудио #5: Английский: AC3, 5.1, 48 kHz, ~448 Кбит/с | Оригинал |
Субтитры: русские (полные), украинские (полные), английские (полные)
Главы: присутствуют, сохранены оригинальные
MediaInfo
Уникальный идентификатор : 200928679916553604980849000223856220889 (0x972974C52E6E0A62ABBE80194A7D5AD9)
Полное имя : The.Lion.King.3.Hakuna.Matata.2004.BDRip-AVC.4xRus.Eng.-HQCLUB.mkv
Формат : Matroska
Версия формата : Version 2
Размер файла : 3,01 Гбайт
Продолжительность : 1 ч. 16 м.
Общий поток : 5647 Кбит/сек
Название фильма : Король Лев 3: Хакуна матата / The Lion King 1 1/2 / The Lion King 3: Hakuna Matata (2004) BDRip-AVC by Elheym [HQCLUB]
Дата кодирования : UTC 2016-02-02 12:39:16
Программа кодирования : mkvmerge v5.2.0 ('I can't explain') built on Dec 18 2011 18:12:03
Библиотека кодирования : libebml v1.2.3 + libmatroska v1.3.0
Обложка : Yes
Attachments : cover.jpg
Видео
Идентификатор : 1
Формат : AVC
Формат/Информация : Advanced Video Codec
Профиль формата : High@L4
Параметр CABAC формата : Да
Параметр ReFrames формата : 10 кадров
Идентификатор кодека : V_MPEG4/ISO/AVC
Продолжительность : 1 ч. 16 м.
Битрейт : 3358 Кбит/сек
Ширина : 1098 пикселей
Высота : 648 пикселей
Соотношение сторон : 5:3
Режим частоты кадров : Постоянный
Частота кадров : 23,976 (24000/1001) кадра/сек
Цветовое пространство : YUV
Субдискретизация насыщенности : 4:2:0
Битовая глубина : 8 бит
Тип развёртки : Прогрессивная
Бит/(Пиксели*Кадры) : 0.197
Размер потока : 1,79 Гбайт (59%)
Заголовок : Король Лев 3: Хакуна матата / The Lion King 1 1/2 / The Lion King 3: Hakuna Matata (2004) BDRip-AVC by Elheym [HQCLUB]
Библиотека кодирования : x264 core 148 r2665+53 6629127 t_mod_Custom [8-bit@all X86_64]
Настройки программы : cabac=1 / ref=10 / deblock=1:-1:-1 / analyse=0x3:0x113 / me=umh / subme=11 / psy=1 / fade_compensate=0.00 / psy_rd=0.50:0.00 / mixed_ref=1 / me_range=48 / chroma_me=1 / trellis=2 / 8x8dct=1 / cqm=0 / deadzone=21,11 / fast_pskip=0 / chroma_qp_offset=-2 / threads=6 / lookahead_threads=2 / sliced_threads=0 / nr=0 / decimate=0 / interlaced=0 / bluray_compat=0 / constrained_intra=0 / fgo=0 / bframes=15 / b_pyramid=2 / b_adapt=2 / b_bias=0 / direct=3 / weightb=1 / open_gop=0 / weightp=2 / keyint=240 / keyint_min=23 / scenecut=40 / intra_refresh=0 / rc_lookahead=60 / rc=crf / mbtree=1 / crf=20.0500 / qcomp=0.70 / qpmin=0:0:0 / qpmax=69:69:69 / qpstep=4 / vbv_maxrate=20000 / vbv_bufsize=25000 / crf_max=0.0 / nal_hrd=none / filler=0 / ip_ratio=1.40 / aq=3:0.50 / aq-sensitivity=10.00 / aq-factor=1.00:1.00:1.00 / aq2=0 / aq3=4:[0.50:0.50]:[0.50:0.50]:[0.50:0.50]:[0.50:0.50] / aq3-sensitivity=15.00 / aq3-factor=[1.00:1.00]:[1.00:1.00]:[1.00:1.00] / aq3-boundary=192:64:24 / zones=78,302,crf=5.6/353,377,crf=7.2/564,902,crf=2.5/904,1181,b=1.66/2619,2781,crf=9.2/9040,9295,crf=8.2/9309,9378,b=2.12/9740,10735,b=2.34/10736,10826,b=2.39/10828,10966,b=1.54/11006,11270,b=1.89/11375,11449,b=2.17/15367,15637,b=2.22/15706,15765,b=3.62/16142,16213,b=2.39/16214,16269,b=2.23/16311,16400,b=2.27/16434,16510,b=1.99/16911,16932,b=2.29/17217,17348,b=1.99/17586,17624,b=1.89/18201,18542,b=1.79/ /19127,19426,b=2.28/19446,19542,b=2.40/22038,22359,b=2.44/23506,23698,crf=3.4/24182,24468,b=1.49/24576,24686,b=1.99/25559,25707,b=1.79/25734,26083,b=1.79/26084,26487,b=2.24/26580,26629,b=2.14/26915,26985,b=2.03/27098,27121,b=1.93/27155,27447,b=1.93/28554,28675,b=3.39/28676,30527,b=2.89/30609,31047,b=3.59/31137,31627,b=2.39/31740,32059,b=1.89/32486,32935,b=2.09/32935,33218,b=2.19/33806,33941,b=2.39/ /33995,34171,b=2.29/34246,34444,b=3.39/34810,35071,b=1.49/35503,35712,b=1.99/35714,35792,b=1.88/35793,35894,b=2.49/35896,36120,b=1.68/36121,36852,b=1.99/36853,36931,b=1.67/36935,36960,b=1.99/36961,37082,b=1.99/37152,37770,b=2.29/38528,38843,b=2.49/39244,39355,crf=3.5/39732,40375,b=2.39/41106,41168,b=2.29/41406,41785,b=2.69/41850,42179,b=3.67/42277,42439,b=2.71/42916,43179,crf=8.7/43978,44248,b=1.68/ /44322,44534,b=2.78/44682,45108,b=1.48/45291,45318,crf=0.1/45319,45398,crf=2.6/45399,45530,crf=6.78/45531,45651,crf=9.2/45693,45773,crf=7.1/45905,46052,crf=7.9/46160,46493,crf=11.9/46608,47307,b=2.75/49313,49403,crf=9.9/49572,50061,crf=10.3/ /50128,50377,crf=10.2/50434,51495,crf=10.2/52606,52979,b=2.39/52981,53124,crf=10.0/53125,53650,b=3.11/53778,53964,b=2.29/54075,54472,b=2.29/54473,54874,b=2.39/54875,55006,b=3.69/55065,55364,b=1.59/55403,55527,b=1.59/55528,55784,b=2.49/56439,56959,b=2.49/57046,57289,b=2.38/57351,58071,b=2.28/59839,59985,b=2.38/59986,60175,b=2.68/60176,60393,b=2.48/60708,60807,b=2.58/60862,61040,b=2.98/60941,61044,b=2.68/61385,61516,b=2.38/61692,63285,b=2.38/64348,65526,b=2.29/66425,66954,b=2.23/67889,68022,b=2.23/68082,68161,b=1.83/68162,68752,b=2.03/68837,69049,b=2.03/69050,70633,b=2.63/70637,70640,crf=1.1/70641,70698,crf=6.8/70714,70844,b=1.63/70867,71209,b=2.93/71210,71261,b=3.13/71262,72153,b=2.03/72154,72356,b=2.13/72357,73133,b=2.23/73134,73485,b=2.23/73486,73585,b=2.57/73586,73641,b=1.69/73642,74273,b=1.95/74445,74517,b=3.45/74606,74683,b=3.05/74684,74739,b=2.05/74740,75015,b=2.17/75087,75109,b=2.87/75249,75457,b=2.27/75495,75715,b=2.17/75716,75867,b=2.17/75868,76079,b=2.17/76080,76983,b=2.37/77407,77645,b=1.89/77646,77869,b=2.27/77870,77973,b=1.97/77974,78083,b=2.47/78084,78362,b=2.17/78368,78939,b=2.37/78940,79113,b=2.09/79114,79177,b=2.67/79178,79225,b=1.77/79226,79321,b=2.17/79322,79473,b=2.67/79474,79651,b=2.77/79652,79791,b=2.27/79950,80043,b=3.27/80044,80107,b=2.28/80108,80307,b=2.18/80308,80743,b=2.38/80744,81005,b=1.98/81006,81401,crf=9.0/81402,81413,b=2.18/81414,81541,crf=9.0/81542,81645,b=1.68/81646,81693,crf=8.2/81694,81739,b=1.89/81740,81779,crf=9.0/81780,81835,b=2.07/81836,81917,crf=9.2/81918,82065,b=1.89/82066,82252,b=1.48/82340,83157,b=1.62/83297,83475,b=1.96/83476,83995,b=2.46/83996,84061,b=1.91/84062,84605,b=2.48/84606,84943,b=2.58/85116,85388,b=2.48/85389,85581,b=2.08/85656,85699,b=3.48/85942,86187,b=2.68/86428,86603,b=2.49/ /86617,86658,b=1.98/86894,86922,b=1.98/86923,87151,b=2.15/87171,87461,b=3.48/87471,87677,b=2.88/87678,87739,b=2.08/87740,87775,b=2.28/87776,88219,b=2.18/88240,88527,b=2.48/88528,88607,b=1.94/88608,88981,b=2.34/88982,89063,b=2.75/89064,89113,b=2.44/89114,89411,b=2.44/89488,90067,crf=7.6/90068,90296,crf=8.4/90313,90390,b=2.44/90871,91551,b=2.24/91743,92653,b=3.24/93010,94135,b=2.84/94378,95381,b=2.34/95780,96210,b=2.54/96326,96532,b=2.64/96650,96690,crf=2.0/96691,96748,crf=0.01/96749,97471,b=1.96/101117,101207,crf=5.77/101208,103127,b=0.85/103128,109297,b=0.45/109298,109649,b=2.555
Язык : English
Default : Да
Forced : Нет
Аудио #1
Идентификатор : 2
Формат : AC-3
Формат/Информация : Audio Coding 3
Расширение режима : CM (complete main)
Параметр Endianness формата : Big
Идентификатор кодека : A_AC3
Продолжительность : 1 ч. 16 м.
Вид битрейта : Постоянный
Битрейт : 448 Кбит/сек
Каналы : 6 каналов
Расположение каналов : Front: L C R, Side: L R, LFE
Частота : 48,0 КГц
Частота кадров : 31,250 кадров/сек (1536 spf)
Метод сжатия : С потерями
Размер потока : 244 Мбайт (8%)
Заголовок : АС3 5.1 @ 448 kbps - Dub, BD EUR
Язык : Russian
Default : Нет
Forced : Нет
Аудио #2
Идентификатор : 3
Формат : AC-3
Формат/Информация : Audio Coding 3
Расширение режима : CM (complete main)
Параметр Endianness формата : Big
Идентификатор кодека : A_AC3
Продолжительность : 1 ч. 16 м.
Вид битрейта : Постоянный
Битрейт : 384 Кбит/сек
Каналы : 6 каналов
Расположение каналов : Front: L C R, Side: L R, LFE
Частота : 48,0 КГц
Частота кадров : 31,250 кадров/сек (1536 spf)
Метод сжатия : С потерями
Размер потока : 209 Мбайт (7%)
Заголовок : АС3 5.1 @ 384 kbps - DVO
Язык : Russian
Default : Нет
Forced : Нет
Аудио #3
Идентификатор : 4
Формат : AC-3
Формат/Информация : Audio Coding 3
Расширение режима : CM (complete main)
Параметр Endianness формата : Big
Идентификатор кодека : A_AC3
Продолжительность : 1 ч. 16 м.
Вид битрейта : Постоянный
Битрейт : 448 Кбит/сек
Каналы : 6 каналов
Расположение каналов : Front: L C R, Side: L R, LFE
Частота : 48,0 КГц
Частота кадров : 31,250 кадров/сек (1536 spf)
Метод сжатия : С потерями
Размер потока : 244 Мбайт (8%)
Заголовок : АС3 5.1 @ 448 kbps - AVO, Zhivov
Язык : Russian
Default : Нет
Forced : Нет
Аудио #4
Идентификатор : 5
Формат : AC-3
Формат/Информация : Audio Coding 3
Расширение режима : CM (complete main)
Параметр Endianness формата : Big
Идентификатор кодека : A_AC3
Продолжительность : 1 ч. 16 м.
Вид битрейта : Постоянный
Битрейт : 448 Кбит/сек
Каналы : 6 каналов
Расположение каналов : Front: L C R, Side: L R, LFE
Частота : 48,0 КГц
Частота кадров : 31,250 кадров/сек (1536 spf)
Метод сжатия : С потерями
Размер потока : 244 Мбайт (8%)
Заголовок : АС3 5.1 @ 448 kbps - AVO, Alekseev
Язык : Russian
Default : Нет
Forced : Нет
Аудио #5
Идентификатор : 6
Формат : AC-3
Формат/Информация : Audio Coding 3
Расширение режима : CM (complete main)
Параметр Endianness формата : Big
Идентификатор кодека : A_AC3
Продолжительность : 1 ч. 16 м.
Вид битрейта : Постоянный
Битрейт : 448 Кбит/сек
Каналы : 6 каналов
Расположение каналов : Front: L C R, Side: L R, LFE
Частота : 48,0 КГц
Частота кадров : 31,250 кадров/сек (1536 spf)
Метод сжатия : С потерями
Размер потока : 244 Мбайт (8%)
Заголовок : АС3 5.1 @ 448 kbps - Original
Язык : English
Default : Нет
Forced : Нет
Текст #1
Идентификатор : 7
Формат : UTF-8
Идентификатор кодека : S_TEXT/UTF8
Идентификатор кодека/Информация : UTF-8 Plain Text
Заголовок : Full
Язык : Russian
Default : Нет
Forced : Нет
Текст #2
Идентификатор : 8
Формат : UTF-8
Идентификатор кодека : S_TEXT/UTF8
Идентификатор кодека/Информация : UTF-8 Plain Text
Заголовок : Full
Язык : Ukrainian
Default : Нет
Forced : Нет
Текст #3
Идентификатор : 9
Формат : UTF-8
Идентификатор кодека : S_TEXT/UTF8
Идентификатор кодека/Информация : UTF-8 Plain Text
Заголовок : Full
Язык : English
Default : Нет
Forced : Нет
Меню
00:00:00.000 : :Chapter 01
00:01:56.115 : :Chapter 02
00:08:22.542 : :Chapter 03
00:12:28.164 : :Chapter 04
00:17:00.686 : :Chapter 05
00:22:34.519 : :Chapter 06
00:29:19.466 : :Chapter 07
00:34:20.558 : :Chapter 08
00:38:19.005 : :Chapter 09
00:40:22.169 : :Chapter 10
00:45:33.021 : :Chapter 11
00:50:09.422 : :Chapter 12
00:54:52.455 : :Chapter 13
00:59:02.872 : :Chapter 14
01:06:18.432 : :Chapter 15
01:10:25.012 : :Chapter 16
01:16:14.361 : :Chapter 17
x264 log
x264 [info]: frame I:770 Avg QP:11.94 size:136740
x264 [info]: frame P:27590 Avg QP:16.85 size: 35390
x264 [info]: frame B:81321 Avg QP:18.00 size: 11078
x264 [info]: consecutive B-frames: 3.9% 3.3% 12.9% 34.2% 19.2% 12.9% 3.5% 2.1% 1.7% 0.9% 1.4% 1.5% 0.7% 0.4% 0.5% 1.0%
x264 [info]: ref P L0: 46.9% 3.8% 18.3% 7.6% 6.0% 5.1% 4.5% 2.6% 2.4% 2.4% 0.6% 0.0%
x264 [info]: ref B L0: 64.7% 14.2% 7.6% 3.9% 3.0% 2.6% 2.3% 1.1% 0.6%
x264 [info]: ref B L1: 91.0% 9.0%
Скриншоты Сравнения с исходником
Источник- -Рип-
Цитата:
- Спасибо участникам "Народного проекта" форума widescreen: ZombX, GVR232, Multmir, bla_, 48ronin за перевод Антона Алексеева.
- Спасибо multmir за чистый голос Юрия Живова.
- Спасибо -Доцент- за 5.1 дорожку с двухголосым закадровым переводом.
Скачать

Скачать торрент! Король Лев 3: Хакуна матата / The Lion King 1 1/2 / The Lion King 3: Hakuna Matata (Брэдли Рэймонд / Bradley Raymond) [2004 г., мультфильм, комедия, приключения, семейный, BDRip-AVC] Dub + DVO + AVO (Живов, Алексеев) + Sub (Rus, Ukr, Eng)

Как скачивать? · Что такое торрент? · Рейтинг и ограничения

Сайт не распространяет и не хранит электронные версии произведений, а лишь предоставляет доступ к создаваемому пользователями каталогу ссылок на торрент-файлы, которые содержат только списки хеш-сумм

[Профиль] [ЛС]
Показать сообщения:    
Ответить на тему

Текущее время: Сегодня 19:35

Часовой пояс: GMT + 4



Вы не можете начинать темы
Вы не можете отвечать на сообщения
Вы не можете редактировать свои сообщения
Вы не можете удалять свои сообщения
Вы не можете голосовать в опросах
Вы не можете прикреплять файлы к сообщениям
Вы не можете скачивать файлы