Шпионский мост / Bridge of Spies (Стивен Спилберг / Steven Spielberg) [2015, США, Германия, Индия, триллер, драма, биография, BDRip 720p] Dub (iTunes) + Original Eng + Sub Rus, Ukr, Eng

Ответить на тему
 
Автор Сообщение

user ®

Стаж: 7 лет 7 месяцев

Сообщений: 20008

Пост Пост: #1 от 05-Фев-2016 02:24

[Цитировать]

Шпионский мост/ Bridge of Spies
Год выпуска: 2015
Жанр: Триллер, драма, биография, история
Страна: США, Индия, Германия, Amblin Entertainment, DreamWorks SKG, Fox 2000 Pictures
Продолжительность: 02:21:19
Перевод: Дублированный [лицензия iTunes]
Оригинальная дорожка: английская
Субтитры: русские (полные, форсированные), украинские (полные, форсированные), английские (полные, SDH)
Главы: есть
Режиссер: Стивен Спилберг / Steven Spielberg
В ролях: Том Хэнкс, Марк Райлэнс, Эми Райан, Алан Алда, Остин Стоуэлл, Скотт Шеперд, Джесси Племонс, Доменик Ломбардоззи, Себастьян Кох, Ив Хьюсон, Дэкин Мэтьюз, Майкл Гэстон, Питер МакРобби, Стефан Канкен, Джошуа Харто, Билли Магнуссен, Марк Цак, Эдвард Джеймс Хайланд, Марко Кака, Михаил Горевой, Джон Окума
О фильме: 1957 год, Бруклин. Известный адвокат Джеймс Донован получает необычное дело: его клиент Рудольф Абель подозревается в шпионаже в пользу Советского Союза. В отличие от своих коллег, Донован занимается защитой «обреченного» подсудимого не формально, а по всем принципам справедливости – как если бы Рудольф был верноподанным американцем. Подобный подход вызывает раздражение у всех, включая судей и присяжных, но Доновану удается смягчить приговор: со смертной казни до 30-летнего заключения. Вскоре выясняется, что в СССР был взят в плен американский шпион Фрэнсис Пауэрс. Советские власти предлагают обмен Абеля на Пауэрса, и Донован оказывается в центре этой опасной сделки.- -Качество видео: BDRip 720p | Murtini
Формат видео: MKV
Видео: MPEG-4 AVC Video ~7.3Mbps 1280x534 / 23,976 fps / 2.40:1 / High Profile 4.1
Аудио:
Russian: 48 kHz, AC3 Dolby Digital, 3/2 (L,C,R,l,r) + LFE ch, ~384 kbps
English: 48 kHz, DTS, 3/2 (L,C,R,l,r) + LFE ch, ~1509.00 kbps avg
Формат субтитров: softsub (SRT)

Sample Скриншоты Дополнительная информация о раздаче
Исходник
Bridge.of.Spies.2015.BluRay.1080p.AVC.DTS-HD.MA7.1-MTeam
MediaInfo
Уникальный идентификатор                 : 203903869322137611144216528701549859457 (0x996674EEE78A4C0DA1999DEDACAE5281)
Полное имя                               : E:\V.temp\bridge\Bridge.of.Spies.2015.BluRay.DTS.x264.mkv
Формат                                   : Matroska
Версия формата                           : Version 4 / Version 2
Размер файла                             : 9,12 Гбайт
Продолжительность                        : 2 ч. 21 м.
Общий поток                              : 9241 Кбит/сек
Название фильма                          : Bridge.of.Spies.2015.BluRay.DTS.x264-Murtini
Дата кодирования                         : UTC 2016-02-03 08:33:38
Программа кодирования                    : mkvmerge v8.3.0 ('Over the Horizon') 32bit
Библиотека кодирования                   : libebml v1.3.1 + libmatroska v1.4.2
Видео
Идентификатор                            : 1
Формат                                   : AVC
Формат/Информация                        : Advanced Video Codec
Профиль формата                          : High@L4.1
Параметр CABAC формата                   : Да
Параметр ReFrames формата                : 12 кадров
Идентификатор кодека                     : V_MPEG4/ISO/AVC
Продолжительность                        : 2 ч. 21 м.
Битрейт                                  : 7346 Кбит/сек
Ширина                                   : 1280 пикселей
Высота                                   : 534 пикселя
Соотношение сторон                       : 2,40:1
Режим частоты кадров                     : Постоянный
Частота кадров                           : 23,976 (24000/1001) кадра/сек
Цветовое пространство                    : YUV
Субдискретизация насыщенности            : 4:2:0
Битовая глубина                          : 8 бит
Тип развёртки                            : Прогрессивная
Бит/(Пиксели*Кадры)                      : 0.448
Размер потока                            : 7,25 Гбайт (79%)
Заголовок                                : Bridge.of.Spies.2015.BluRay.DTS.x264-Murtini
Библиотека кодирования                   : x264 core 146 r2538 121396c
Настройки программы                      : cabac=1 / ref=12 / deblock=1:-3:-3 / analyse=0x3:0x133 / me=umh / subme=11 / psy=1 / psy_rd=1.05:1.00 / mixed_ref=1 / me_range=32 / chroma_me=1 / trellis=2 / 8x8dct=1 / cqm=0 / deadzone=21,11 / fast_pskip=0 / chroma_qp_offset=-4 / threads=6 / lookahead_threads=1 / sliced_threads=0 / nr=0 / decimate=0 / interlaced=0 / bluray_compat=0 / constrained_intra=0 / bframes=11 / b_pyramid=2 / b_adapt=2 / b_bias=0 / direct=3 / weightb=1 / open_gop=0 / weightp=2 / keyint=240 / keyint_min=23 / scenecut=40 / intra_refresh=0 / rc_lookahead=60 / rc=crf / mbtree=0 / crf=16.5 / qcomp=0.60 / qpmin=0 / qpmax=69 / qpstep=4 / vbv_maxrate=40000 / vbv_bufsize=30000 / crf_max=0.0 / nal_hrd=none / filler=0 / ip_ratio=1.40 / pb_ratio=1.30 / aq=1:1.00
Язык                                     : English
Default                                  : Да
Forced                                   : Нет
Аудио #1
Идентификатор                            : 2
Формат                                   : AC-3
Формат/Информация                        : Audio Coding 3
Расширение режима                        : CM (complete main)
Параметр Endianness формата              : Big
Идентификатор кодека                     : A_AC3
Продолжительность                        : 2 ч. 21 м.
Вид битрейта                             : Постоянный
Битрейт                                  : 384 Кбит/сек
Каналы                                   : 6 каналов
Расположение каналов                     : Front: L C R, Side: L R, LFE
Частота                                  : 48,0 КГц
Частота кадров                           : 31,250 кадров/сек (1536 spf)
Метод сжатия                             : С потерями
Размер потока                            : 388 Мбайт (4%)
Заголовок                                : DD5.1@384kbps
Язык                                     : Russian
Default                                  : Да
Forced                                   : Нет
Аудио #2
Идентификатор                            : 3
Формат                                   : DTS
Формат/Информация                        : Digital Theater Systems
Режим                                    : 16
Параметр Endianness формата              : Big
Идентификатор кодека                     : A_DTS
Продолжительность                        : 2 ч. 21 м.
Вид битрейта                             : Постоянный
Битрейт                                  : 1509 Кбит/сек
Каналы                                   : 6 каналов
Расположение каналов                     : Front: L C R, Side: L R, LFE
Частота                                  : 48,0 КГц
Частота кадров                           : 93,750 кадра/сек (512 spf)
Битовая глубина                          : 24 бит
Метод сжатия                             : С потерями
Размер потока                            : 1,49 Гбайт (16%)
Заголовок                                : DTS5.1@1509kbps
Default                                  : Нет
Forced                                   : Нет
Текст #1
Идентификатор                            : 4
Формат                                   : UTF-8
Идентификатор кодека                     : S_TEXT/UTF8
Идентификатор кодека/Информация          : UTF-8 Plain Text
Продолжительность                        : 2 ч. 19 м.
Битрейт                                  : 5 бит/сек
Count of elements                        : 105
Размер потока                            : 5,73 Кбайт (0%)
Заголовок                                : Forced
Язык                                     : Russian
Default                                  : Да
Forced                                   : Нет
Текст #2
Идентификатор                            : 5
Формат                                   : UTF-8
Идентификатор кодека                     : S_TEXT/UTF8
Идентификатор кодека/Информация          : UTF-8 Plain Text
Продолжительность                        : 2 ч. 19 м.
Битрейт                                  : 99 бит/сек
Count of elements                        : 1785
Размер потока                            : 102 Кбайт (0%)
Язык                                     : Russian
Default                                  : Нет
Forced                                   : Нет
Текст #3
Идентификатор                            : 6
Формат                                   : UTF-8
Идентификатор кодека                     : S_TEXT/UTF8
Идентификатор кодека/Информация          : UTF-8 Plain Text
Продолжительность                        : 2 ч. 19 м.
Битрейт                                  : 2 бит/сек
Count of elements                        : 34
Размер потока                            : 2,17 Кбайт (0%)
Заголовок                                : Forced
Язык                                     : Ukrainian
Default                                  : Нет
Forced                                   : Нет
Текст #4
Идентификатор                            : 7
Формат                                   : UTF-8
Идентификатор кодека                     : S_TEXT/UTF8
Идентификатор кодека/Информация          : UTF-8 Plain Text
Продолжительность                        : 2 ч. 19 м.
Битрейт                                  : 98 бит/сек
Count of elements                        : 1786
Размер потока                            : 100 Кбайт (0%)
Язык                                     : Ukrainian
Default                                  : Нет
Forced                                   : Нет
Текст #5
Идентификатор                            : 8
Формат                                   : UTF-8
Идентификатор кодека                     : S_TEXT/UTF8
Идентификатор кодека/Информация          : UTF-8 Plain Text
Продолжительность                        : 2 ч. 7 м.
Битрейт                                  : 65 бит/сек
Count of elements                        : 1949
Размер потока                            : 61,7 Кбайт (0%)
Язык                                     : English
Default                                  : Нет
Forced                                   : Нет
Текст #6
Идентификатор                            : 9
Формат                                   : UTF-8
Идентификатор кодека                     : S_TEXT/UTF8
Идентификатор кодека/Информация          : UTF-8 Plain Text
Продолжительность                        : 2 ч. 10 м.
Битрейт                                  : 68 бит/сек
Count of elements                        : 2106
Размер потока                            : 65,5 Кбайт (0%)
Заголовок                                : SDH
Язык                                     : English
Default                                  : Нет
Forced                                   : Нет
Меню
00:00:00.000                             : en:00:00:00.000
00:10:29.461                             : en:00:10:29.461
00:17:46.481                             : en:00:17:46.481
00:22:09.827                             : en:00:22:09.827
00:25:27.901                             : en:00:25:27.901
00:31:18.209                             : en:00:31:18.209
00:37:45.721                             : en:00:37:45.721
00:45:29.268                             : en:00:45:29.268
00:52:36.695                             : en:00:52:36.695
01:00:39.427                             : en:01:00:39.427
01:07:17.867                             : en:01:07:17.867
01:16:52.399                             : en:01:16:52.399
01:33:55.671                             : en:01:33:55.671
01:45:41.752                             : en:01:45:41.752
01:56:31.192                             : en:01:56:31.192
02:07:20.548                             : en:02:07:20.548
02:14:18.800                             : en:02:14:18.800
Скачать

Скачать торрент!

Как скачивать? · Что такое торрент? · Рейтинг и ограничения

Сайт не распространяет и не хранит электронные версии произведений, а лишь предоставляет доступ к создаваемому пользователями каталогу ссылок на торрент-файлы, которые содержат только списки хеш-сумм

[Профиль] [ЛС]
Показать сообщения:    
Ответить на тему

Текущее время: Сегодня 12:12

Часовой пояс: GMT + 4



Вы не можете начинать темы
Вы не можете отвечать на сообщения
Вы не можете редактировать свои сообщения
Вы не можете удалять свои сообщения
Вы не можете голосовать в опросах
Вы не можете прикреплять файлы к сообщениям
Вы не можете скачивать файлы