Город героев / Big Hero 6 (Дон Холл / Don Hall, Крис Уильямс / Chris Williams) [2014, США, Мультфильм, фантастика, комедия, семейный, боевик, BDRip] Dub

Ответить на тему
 
Автор Сообщение

user ®

Стаж: 13 лет

Сообщений: 15041

Пост Пост: #1 от 04-Фев-2016 23:18

[Цитировать]

Город героев / Big Hero 6- Год выхода: 2014
Выпущено: США / Walt Disney Pictures, Walt Disney Animation Studios
Жанр: мультфильм, фантастика, комедия, семейный, боевик
Продолжительность: 01:41:52
Перевод: Профессиональный (полное дублирование) BD CEE |Лицензия|
Субтитры: нет-Режиссер:
Дон Холл / Don Hall, Крис Уильямс / Chris Williams-В ролях:
Райан Поттер (Hiro), Скотт Эдсит (Baymax), Дэниэл Хенни (Tadashi), ТиДжей Миллер (Fred), Джейми Чанг (Go Go), Дэймон Уайанс мл. (Wasabi), Дженезис Родригез (Honey Lemon), Джеймс Кромуэлл (Robert Callaghan), Алан Тьюдик (Alistair Krei), Майя Рудольф (Cass)-О фильме:
Юный Хиро Хамада — прирожденный изобретатель и гений конструирования роботов. Вместе со старшим братом Тадаши они воплощают в жизнь самые передовые идеи в Техническом университете города будущего Сан-Франсокио. После серии загадочных событий друзья оказываются в центре коварного заговора. Отчаявшись, Хиро решает использовать веселого и добродушного экспериментального робота Бэймакса, перепрограммировав его в неуязвимую боевую машину.-Релиз групп [url=http://***/forum/viewtopic.php?t=1677970] [/url] | | IMDB | КиноПоиск | Сэмпл |-Качество: BDRip [BDRemux | 1080p | Rutor]
Формат: AVI
Видео: 720x304 (2.37:1), 23.976 fps, XviD build 67 ~1653 kbps avg, 0.32 bit/pixel
Аудио: 48 kHz, AC3 Dolby Digital, 3/2 (L,C,R,l,r) + LFE ch, ~384.00 kbps avg
-Скриншоты MediaInfo
Общее
Полное имя                               : D:\Gorod_Geroev_2014_BDRip_by_Dalemake.avi
Формат                                   : AVI
Формат/Информация                        : Audio Video Interleave
Размер файла                             : 1,46 Гбайт
Продолжительность                        : 1 ч. 41 м.
Общий поток                              : 2047 Кбит/сек
Программа кодирования                    : VirtualDubMod 1.5.10.3 | www.virtualdub-fr.org || (build 2550/release)
Библиотека кодирования                   : VirtualDubMod build 2550/release
Видео
Идентификатор                            : 0
Формат                                   : MPEG-4 Visual
Профиль формата                          : Advanced Simple@L5
Параметр BVOP формата                    : 1
Параметр QPel формата                    : Нет
Параметр GMC формата                     : Без точки перехода
Параметр матрицы формата                 : Выборочная
Идентификатор кодека                     : XVID
Идентификатор кодека/Подсказка           : XviD
Продолжительность                        : 1 ч. 41 м.
Битрейт                                  : 1654 Кбит/сек
Ширина                                   : 720 пикселей
Высота                                   : 304 пикселя
Соотношение сторон                       : 2,35:1
Частота кадров                           : 23,976 кадра/сек
Цветовое пространство                    : YUV
Субдискретизация насыщенности            : 4:2:0
Битовая глубина                          : 8 бит
Тип развёртки                            : Прогрессивная
Метод сжатия                             : С потерями
Бит/(Пиксели*Кадры)                      : 0.315
Размер потока                            : 1,18 Гбайт (81%)
Библиотека кодирования                   : XviD 67
Аудио
Идентификатор                            : 1
Формат                                   : AC-3
Формат/Информация                        : Audio Coding 3
Расширение режима                        : CM (complete main)
Параметр Endianness формата              : Big
Идентификатор кодека                     : 2000
Продолжительность                        : 1 ч. 41 м.
Вид битрейта                             : Постоянный
Битрейт                                  : 384 Кбит/сек
Каналы                                   : 6 каналов
Расположение каналов                     : Front: L C R, Side: L R, LFE
Частота                                  : 48,0 КГц
Битовая глубина                          : 16 бит
Метод сжатия                             : С потерями
Размер потока                            : 280 Мбайт (19%)
Выравнивание                             : Разделение по промежуткам
Продолжительность промежутка             : 42  мс. (1,00 видеокадр)
Время предзагрузки промежутка            : 500  мс.
-
Скачать

Скачать торрент! Город героев / Big Hero 6 (Дон Холл / Don Hall, Крис Уильямс / Chris Williams) [2014, США, Мультфильм, фантастика, комедия, семейный, боевик, BDRip] Dub

Как скачивать? · Что такое торрент? · Рейтинг и ограничения

Сайт не распространяет и не хранит электронные версии произведений, а лишь предоставляет доступ к создаваемому пользователями каталогу ссылок на торрент-файлы, которые содержат только списки хеш-сумм

[Профиль] [ЛС]
Показать сообщения:    
Ответить на тему

Текущее время: Сегодня 03:01

Часовой пояс: GMT + 4



Вы не можете начинать темы
Вы не можете отвечать на сообщения
Вы не можете редактировать свои сообщения
Вы не можете удалять свои сообщения
Вы не можете голосовать в опросах
Вы не можете прикреплять файлы к сообщениям
Вы не можете скачивать файлы