Чумовой / Bizarre (Этьен Форе / Etienne Faure) [2015, Франция, США, мюзикл, драма, мелодрама, WEB-DL 1080p] VO (Илья Бехтер)

Ответить на тему
 
Автор Сообщение

user ®

Стаж: 7 лет 7 месяцев

Сообщений: 20008

Пост Пост: #1 от 04-Фев-2016 23:18

[Цитировать]

Чумовой / Bizarre
Страна: Франция, США
Жанр: Мюзикл, драма, мелодрама
Год выпуска: 2015
Продолжительность: 01:35:39
Перевод: Одноголосый (закадровый) Илья Бехтер
Cубтитры: нет
Оригинальная аудиодорожка: нет
Режиссер: Этьен Форе / Etienne Faure
В ролях: Пьер Приер, Адриан Джеймс, Ракель Нейв, Ребека Андерхилл, Чарли Химмельштейн, Рита Азар, Майкл Гловер
Описание: Французский подросток Морис, сбежав из Франции, начинает работать в бруклинском клубе под названием «Чумовой». Очень быстро он становится своего рода талисманом клуба. Владелец клуба и все выступающие в нем артисты просто обожают его, но Морис больше не может любить… из-за секретов его прошлого.
Сэмпл: http://sendfile.su/1199753
Качество видео: WEB-DL-1080р
Формат видео: MKV
Видео: 1920х1080 (4:2:0), 24 fps, Intel ITU H.264 ~5052 kbps avg, 0.32 bit/pixel
Аудио: 48 kHz, MPEG Layer 3, 2 ch, ~192.00 kbps avg
http://www.kinopoisk.ru/film/883235
http://www.imdb.com/title/tt3904272/
MediaInfo
Unique ID : 235456802388589958144505302155034556197 (0xB12354A45D030806BA18A18ECF12F725)
Complete name : D:\Zona donwlads\Bizarre.mkv
Format : Matroska
Format version : Version 4 / Version 2
File size : 3.51 GiB
Duration : 1h 35mn
Overall bit rate : 5 246 Kbps
Movie name : Brooklyn Bizarre (2015) 1080p WEB-DL
Encoded date : UTC 2016-01-25 16:51:31
Writing application : mkvmerge v8.3.0 ('Over the Horizon') 32bit
Writing library : libebml v1.3.1 + libmatroska v1.4.2
Cover : Yes
Attachments : small_cover.jpg / small_cover_land.jpg / cover.jpg / cover_land.jpg
Video
ID : 1
Format : AVC
Format/Info : Advanced Video Codec
Format profile : High@L4
Format settings, CABAC : Yes
Format settings, ReFrames : 4 frames
Codec ID : V_MPEG4/ISO/AVC
Duration : 1h 35mn
Bit rate : 5 052 Kbps
Width : 1 920 pixels
Height : 1 080 pixels
Display aspect ratio : 16:9
Frame rate mode : Constant
Frame rate : 24.000 fps
Color space : YUV
Chroma subsampling : 4:2:0
Bit depth : 8 bits
Scan type : Progressive
Bits/(Pixel*Frame) : 0.102
Stream size : 3.38 GiB (96%)
Title : Brooklyn.Bizarre.2015.1080p.WEB-DL.AAC2.0.H264-RARBG
Language : English
Default : Yes
Forced : No
Color range : Limited
Color primaries : BT.709
Transfer characteristics : BT.709
Matrix coefficients : BT.709
Audio
ID : 2
Format : AC-3
Format/Info : Audio Coding 3
Mode extension : CM (complete main)
Format settings, Endianness : Big
Codec ID : A_AC3
Duration : 1h 35mn
Bit rate mode : Constant
Bit rate : 192 Kbps
Channel(s) : 2 channels
Channel positions : Front: L R
Sampling rate : 48.0 KHz
Frame rate : 31.250 fps (1536 spf)
Compression mode : Lossy
Stream size : 131 MiB (4%)
Language : Russian
Default : Yes
Forced : No
Menu
00:00:00.000 : en:My Name Is Maurice
00:06:04.000 : en:A Room & A Job
00:12:58.000 : en:Did You See the Show?
00:22:58.000 : en:French Boy, Full of Mystery
00:34:07.000 : en:Game of Chess
00:47:31.000 : en:Tell Me What You Want
00:56:46.000 : en:Everybody Has Pain
01:04:11.000 : en:Special Performance
01:14:22.000 : en:The Man
01:23:32.000 : en:Where's My Knife?
01:27:48.000 : en:I Know I Don't Really Exist
01:32:19.000 : en:End Credits
Скриншот c названием фильма Скриншоты
Скачать

Скачать торрент!

Как скачивать? · Что такое торрент? · Рейтинг и ограничения

Сайт не распространяет и не хранит электронные версии произведений, а лишь предоставляет доступ к создаваемому пользователями каталогу ссылок на торрент-файлы, которые содержат только списки хеш-сумм

[Профиль] [ЛС]
Показать сообщения:    
Ответить на тему

Текущее время: Сегодня 16:04

Часовой пояс: GMT + 4



Вы не можете начинать темы
Вы не можете отвечать на сообщения
Вы не можете редактировать свои сообщения
Вы не можете удалять свои сообщения
Вы не можете голосовать в опросах
Вы не можете прикреплять файлы к сообщениям
Вы не можете скачивать файлы