Резня на вечеринке женского общества / Резня женщин / Sorority Party Massacre (Крис В. Фриман / Chris W. Freeman, Джастин Джонс / Justin Jones) [2013, США, триллер, ужасы, BDRip 1080p] MVO (BadCatStudio) + Original (Eng)

Ответить на тему
 
Автор Сообщение

user ®

Стаж: 7 лет 7 месяцев

Сообщений: 20008

Пост Пост: #1 от 04-Фев-2016 23:18

[Цитировать]

Резня на вечеринке женского общества / Sorority Party Massacre Год выпуска: 2013
Страна: США
Жанр: триллер, ужасы
Продолжительность: 01:43:26
Перевод: Любительский (многоголосый, закадровый) [BadCatStudio]
Оригинальная дорожка: английская
Субтитры: отсутствуют
Режиссёр: Крис В. Фриман / Chris W. Freeman, Джастин Джонс / Justin Jones-В ролях: Томас Дауни, Эд О’Росс, Марисса Скелл, Ив Мауро, Лесли Истербрук, Ричард Молл, Луис Мэндилор, Кевин Сорбо, Ивет Йэтс, Кэйси Фицджералд и др.-Описание: Чрезвычайно вспыльчивый детектив Ватс отправляется на поиски пропавшей дочери своего начальника на остров Гризли Коув, где проходит конкурсный отбор в некое элитное женское сообщество (раскрывается тема сисек). С его приездом на тихом мирном острове начинается череда кошмарных убийств претенденток на победу, причём самыми изощрёнными и неожиданными способами... Интрига не отпустит пытливого зрителя до самого финала! Переведено изумительно душевно с лёгкими вкраплениями ненорматива...
Внимание! Содержится ненормативная лексика.
Доп. информация: Не рекомендуется несовершеннолетним, беременным и кормящим матерям, а также людям, страдающим психическими заболеваниями и отсутствием чувства юмора!-Релиз: BadCatStudio
Перевод: Андрей Чусовитин
Редактура: Андрей Зверев
Закадровый текст читали: Андрей Зверев, Глеб Петров, Лилия Власова, Людмила Акшенцева, Ирина Ясногородская, Рина Горькая, Кристина Филатова, Алсу Каримова
Работа со звуком: Павел Шевчук, Александр Артемов-Качество: BDRip 1080p
Формат: MKV
Видео кодек: AVC
Аудио кодек: DTS
Видео: 1920x1080, 23.976 fps, x264, ~9080 kbps avg, ~0.183 bit/pixel
Аудио #1: 48 kHz, DTS, 6 ch, ~1509.00 kbps avg MVO [BadCatStudio]
Аудио #2: 48 kHz, DTS, 6 ch, ~1509.00 kbps avg Original
Субтитры: отсутствуют-Сэмпл / IMDB / КиноПоиск-MediaInfo
General
Unique ID                   : 222443965289129497581435739380788153303 (0xA759263D1A5A904CA81C6839E21ACBD7)
Complete name               : G:\000\Sorority.Party.Massacre.2013.BDRip.1080p.Rus.Eng-BadCatStudio.mkv
Format                      : Matroska
Format version              : Version 4 / Version 2
File size                   : 8.74 GiB
Duration                    : 1h 43mn
Overall bit rate            : 12.1 Mbps
Encoded date                : UTC 2016-02-02 12:52:20
Writing application         : mkvmerge v8.8.0 ('Wind at my back') 32bit
Writing library             : libebml v1.3.3 + libmatroska v1.4.4
Cover                       : Yes
Attachments                 : cover.jpg
Video
ID                          : 1
Format                      : AVC
Format/Info                 : Advanced Video Codec
Format profile              : High@L4.1
Format settings, CABAC      : Yes
Format settings, ReFrames   : 4 frames
Codec ID                    : V_MPEG4/ISO/AVC
Duration                    : 1h 43mn
Bit rate                    : 9 080 Kbps
Width                       : 1 920 pixels
Height                      : 1 080 pixels
Display aspect ratio        : 16:9
Frame rate mode             : Constant
Frame rate                  : 23.976 (24000/1001) fps
Color space                 : YUV
Chroma subsampling          : 4:2:0
Bit depth                   : 8 bits
Scan type                   : Progressive
Bits/(Pixel*Frame)          : 0.183
Stream size                 : 6.56 GiB (75%)
Writing library             : x264 core 130 r2273 b3065e6
Encoding settings           : cabac=1 / ref=4 / deblock=1:0:0 / analyse=0x3:0x133 / me=umh / subme=7 / psy=1 / psy_rd=1.00:0.00 / mixed_ref=1 / me_range=16 / chroma_me=1 / trellis=1 / 8x8dct=1 / cqm=0 / deadzone=21,11 / fast_pskip=0 / chroma_qp_offset=-2 / threads=6 / lookahead_threads=1 / sliced_threads=0 / nr=0 / decimate=1 / interlaced=0 / bluray_compat=0 / constrained_intra=0 / bframes=3 / b_pyramid=2 / b_adapt=1 / b_bias=0 / direct=1 / weightb=1 / open_gop=0 / weightp=2 / keyint=240 / keyint_min=23 / scenecut=40 / intra_refresh=0 / rc_lookahead=40 / rc=2pass / mbtree=1 / bitrate=9080 / ratetol=1.0 / qcomp=0.60 / qpmin=10 / qpmax=69 / qpstep=4 / cplxblur=20.0 / qblur=0.5 / ip_ratio=1.40 / aq=1:1.00
Language                    : English
Default                     : Yes
Forced                      : No
Audio #1
ID                          : 2
Format                      : DTS
Format/Info                 : Digital Theater Systems
Mode                        : 16
Format settings, Endianness : Big
Codec ID                    : A_DTS
Duration                    : 1h 43mn
Bit rate mode               : Constant
Bit rate                    : 1 510 Kbps
Channel(s)                  : 6 channels
Channel positions           : Front: L C R, Side: L R, LFE
Sampling rate               : 48.0 KHz
Frame rate                  : 93.750 fps (512 spf)
Bit depth                   : 24 bits
Compression mode            : Lossy
Stream size                 : 1.09 GiB (12%)
Title                       : MVO [BadCatStudio]
Language                    : Russian
Default                     : Yes
Forced                      : No
Audio #2
ID                          : 3
Format                      : DTS
Format/Info                 : Digital Theater Systems
Mode                        : 16
Format settings, Endianness : Big
Codec ID                    : A_DTS
Duration                    : 1h 43mn
Bit rate mode               : Constant
Bit rate                    : 1 509 Kbps
Channel(s)                  : 6 channels
Channel positions           : Front: L C R, Side: L R, LFE
Sampling rate               : 48.0 KHz
Frame rate                  : 93.750 fps (512 spf)
Bit depth                   : 16 bits
Compression mode            : Lossy
Stream size                 : 1.09 GiB (12%)
Title                       : Original
Language                    : English
Default                     : No
Forced                      : No
Menu
00:00:00.000                : en:00:00:00.000
00:08:37.475                : en:00:08:37.475
00:18:35.072                : en:00:18:35.072
00:28:01.179                : en:00:28:01.179
00:36:58.591                : en:00:36:58.591
00:45:04.785                : en:00:45:04.785
00:51:56.947                : en:00:51:56.947
00:59:13.841                : en:00:59:13.841
01:06:56.804                : en:01:06:56.804
01:14:27.713                : en:01:14:27.713
01:24:21.097                : en:01:24:21.097
01:34:15.900                : en:01:34:15.900
Скриншоты
Скачать

Скачать торрент!

Как скачивать? · Что такое торрент? · Рейтинг и ограничения

Сайт не распространяет и не хранит электронные версии произведений, а лишь предоставляет доступ к создаваемому пользователями каталогу ссылок на торрент-файлы, которые содержат только списки хеш-сумм

[Профиль] [ЛС]
Показать сообщения:    
Ответить на тему

Текущее время: Сегодня 06:58

Часовой пояс: GMT + 4



Вы не можете начинать темы
Вы не можете отвечать на сообщения
Вы не можете редактировать свои сообщения
Вы не можете удалять свои сообщения
Вы не можете голосовать в опросах
Вы не можете прикреплять файлы к сообщениям
Вы не можете скачивать файлы