Уездная драма / Предмет обожания (Олег Базилов) [2015, драма, IPTVRip] Sub Heb

Ответить на тему
 
Автор Сообщение

user ®

Стаж: 7 лет 7 месяцев

Сообщений: 20008

Пост Пост: #1 от 04-Фев-2016 23:18

[Цитировать]

Уездная драма / Предмет обожания Страна: Беларусь, Россия
Жанр: драма
Год выпуска: 2015
Продолжительность: 01:19:35
Перевод: не требуется
Cубтитры: иврит (вшитые)
Режиссёр: Олег Базилов
В ролях: Сергей Шакуров, Павел Делонг, Борис Миронов, Анна Попова, Александр Ткачёнок, Антон Бельский, Александр Парфенович, Нина Пискарёва, Марта Шантар, Валентина Гарцуева, Тамара Муженко, Татьяна Мархель, Виктор Васильев, Игорь Денисов, Игорь Петров, Георгий Малявский
Описание: Фильм по мотивам произведений Антона Павловича Чехова.
В имение князя Грохольского приезжает известный беллетрист Борис фон Дидериц с супругой Лизой. Молодая женщина разительно отличается от местных обитательниц красотой, природным изяществом и своей неотразимой женской силой, безотказно действующей на мужчин. Она сводит с ума и хозяина имения, и его молодого, непутевого сына Григория, и друга семьи - уездного исправника, надворного советника Данилу Охлопкова. При полном безразличии своего супруга Лиза каждому из мужчин дарит авансы, каждого манит к себе, но не делает до конца счастливым. Связанные семейными и дружескими узами любовники Лизы начинают мучительно ревновать друг к другу. Не приходит избавления от страданий и тогда, когда Лиза однажды бесследно исчезает…
Доп. информация:

Сэмпл:

Качество видео: IPTVRip
Формат видео: AVI
Видео: 704x384 (1.83:1), 25 fps, XviD MPEG-4 ~1794 kbps avg, 0.27 bit/pixel
Аудио: 48 kHz, MPEG Layer 3, 2 ch, ~128.00 kbps avg
MediaInfo
Общее
Полное имя : Q:\Predmet.obozhaniya.2015.IPTVRip.avi
Формат : AVI
Формат/Информация : Audio Video Interleave
Размер файла : 1,08 Гбайт
Продолжительность : 1 ч. 19 м.
Общий поток : 1936 Кбит/сек
Программа кодирования : Lavf52.39.1
Библиотека кодирования : VirtualDub build 29808/release
Видео
Идентификатор : 0
Формат : xvid
Идентификатор кодека : xvid
Продолжительность : 1 ч. 19 м.
Битрейт : 1795 Кбит/сек
Ширина : 704 пикселя
Высота : 384 пикселя
Соотношение сторон : 1,85:1
Частота кадров : 25,000 кадров/сек
Бит/(Пиксели*Кадры) : 0.266
Размер потока : 1022 Мбайт (93%)
Аудио
Идентификатор : 1
Формат : MPEG Audio
Версия формата : Version 1
Профиль формата : Layer 3
Режим : Joint stereo
Расширение режима : MS Stereo
Идентификатор кодека : 55
Идентификатор кодека/Подсказка : MP3
Продолжительность : 1 ч. 19 м.
Вид битрейта : Постоянный
Битрейт : 128 Кбит/сек
Каналы : 2 канала
Частота : 48,0 КГц
Метод сжатия : С потерями
Размер потока : 72,9 Мбайт (7%)
Выравнивание : Соединение по промежуткам
Продолжительность промежутка : 24 мс. (0,60 видеокадр)
Время предзагрузки промежутка : 504 мс.
Скриншот c названием фильма Скриншоты
Скачать

Скачать торрент!

Как скачивать? · Что такое торрент? · Рейтинг и ограничения

Сайт не распространяет и не хранит электронные версии произведений, а лишь предоставляет доступ к создаваемому пользователями каталогу ссылок на торрент-файлы, которые содержат только списки хеш-сумм

[Профиль] [ЛС]
Показать сообщения:    
Ответить на тему

Текущее время: Сегодня 05:59

Часовой пояс: GMT + 4



Вы не можете начинать темы
Вы не можете отвечать на сообщения
Вы не можете редактировать свои сообщения
Вы не можете удалять свои сообщения
Вы не можете голосовать в опросах
Вы не можете прикреплять файлы к сообщениям
Вы не можете скачивать файлы