Снежная битва / La guerre des tuques 3D (Жан-Франсуа Пуле / Jean-François Pouliot, Франсуа Бриссон / François Brisson) [2015, Канада, мультфильм, WEBRip] Dub |Чистый звук|

Ответить на тему
 
Автор Сообщение

user ®

Стаж: 12 лет

Сообщений: 15145

Пост Пост: #1 от 04-Фев-2016 02:15

[Цитировать]

Снежная битва / La guerre des tuques 3D -Страна: Канада
Жанр: мультфильм
Год выпуска: 2015
Продолжительность: 01:21:59
Перевод: Профессиональный (полное дублирование) |Чистый звук|
Cубтитры: нет-Режиссер: Жан-Франсуа Пуле / Jean-François Pouliot, Франсуа Бриссон / François Brisson-В ролях: Анджела Галуппо, Марилуп Вульф, Люсинда Дэвис, Николас Савард-Хербер, Софи Кадьо, Энн Касабонн, Хелен Буржуа Леклерк, Росс Линч, Катрин Трюдо, Жильдор Руа-Описание: Чтобы развлечься во время зимних каникул, детвора из маленькой деревни решает устроить грандиозное снежное побоище между двумя командами.- -Релиз от: -Автор рипа: Yarmak23-Качество видео: WEBRip | исх. WEBRip 1080p |
Формат видео: AVI
Видео: 720x304 (2.35:1), 24.000 fps, XviD 65 ~2070 kbps avg, 0.394 bit/pixel
Аудио: 48 kHz, AC3 Dolby Digital, 2/0 (L,R) ch, 448.00 kbps Constant |Дубляж|
Скачать: Сэмпл-MI
General
Complete name : Snegovie.Voiny.2015.D.WEBRip.1.45GB.by.Yarmak23.avi
Format : AVI
Format/Info : Audio Video Interleave
File size : 1.45 GiB
Duration : 1h 21mn
Overall bit rate : 2 528 Kbps
Writing application : VirtualDubMod 1.5.10.3 | www.virtualdub-fr.org || (build 2550/release)
Writing library : VirtualDubMod build 2550/release
Video
ID : 0
Format : MPEG-4 Visual
Format profile : Advanced Simple@L5
Format settings, BVOP : 1
Format settings, QPel : No
Format settings, GMC : No warppoints
Format settings, Matrix : Custom
Codec ID : XVID
Codec ID/Hint : XviD
Duration : 1h 21mn
Bit rate : 2 070 Kbps
Width : 720 pixels
Height : 304 pixels
Display aspect ratio : 2.35:1
Frame rate : 24.000 fps
Color space : YUV
Chroma subsampling : 4:2:0
Bit depth : 8 bits
Scan type : Progressive
Compression mode : Lossy
Bits/(Pixel*Frame) : 0.394
Stream size : 1.19 GiB (82%)
Writing library : XviD 65
Audio
ID : 1
Format : AC-3
Format/Info : Audio Coding 3
Mode extension : CM (complete main)
Format settings, Endianness : Big
Codec ID : 2000
Duration : 1h 21mn
Bit rate mode : Constant
Bit rate : 448 Kbps
Channel(s) : 2 channels
Channel positions : Front: L R
Sampling rate : 48.0 KHz
Bit depth : 16 bits
Compression mode : Lossy
Stream size : 263 MiB (18%)
Alignment : Split accross interleaves
Interleave, duration : 42 ms (1.00 video frame)
Interleave, preload duration : 500 ms
Скриншот c названием фильма Скриншоты - рекомендуется присутствие родителей
Скачать

Скачать торрент! Снежная битва / La guerre des tuques 3D (Жан-Франсуа Пуле / Jean-François Pouliot, Франсуа Бриссон / François Brisson) [2015, Канада, мультфильм, WEBRip] Dub |Чистый звук|

Как скачивать? · Что такое торрент? · Рейтинг и ограничения

Сайт не распространяет и не хранит электронные версии произведений, а лишь предоставляет доступ к создаваемому пользователями каталогу ссылок на торрент-файлы, которые содержат только списки хеш-сумм

[Профиль] [ЛС]
Показать сообщения:    
Ответить на тему

Текущее время: Сегодня 12:02

Часовой пояс: GMT + 4



Вы не можете начинать темы
Вы не можете отвечать на сообщения
Вы не можете редактировать свои сообщения
Вы не можете удалять свои сообщения
Вы не можете голосовать в опросах
Вы не можете прикреплять файлы к сообщениям
Вы не можете скачивать файлы