Дочь Бога / Exposed (Деклан Дэйл / Declan Dale) [2016, США, драма, WEB-DL 720p] DVO + Sub Eng + Original Eng

Ответить на тему
 
Автор Сообщение

user ®

Стаж: 7 лет 7 месяцев

Сообщений: 20008

Пост Пост: #1 от 04-Фев-2016 02:15

[Цитировать]

-Дочь Бога / Exposed
«Some secrets are better left buried»- -Страна: США
Жанр: Драма
Год выпуска: 2016
Продолжительность: 01:42:29-Перевод: Любительский (двухголосый закадровый) den904 & DeadSno-Cубтитры: Английские
Оригинальная аудиодорожка: Английская-Режиссер: Деклан Дэйл / Declan Dale-В ролях: Киану Ривз, Ана де Армас, Мира Сорвино, Биг Дэдди Кэйн, Кристофер МакДональд, Лаура Гомез, Клара Вонг, Майкл Рисполи, Дения Браче-Описание: С женщиной, которая стала свидетелем чуда, начинают происходить странные вещи. А в это время полицейский детектив пытается разобраться в том, что привело к смерти его напарника.- -Тип релиза: WEB-DL 720p
Контейнер: MKV-Видео: MPEG-4 AVC, 1280x542 (2.35:1), 23.976 fps, 3982 kbps, 0.239 bit/pixel
Аудио 1: 48 kHz, AC3 Dolby Digital, 2/0 (L,R) ch, ~192 kbps
Аудио 2: 48 kHz, AC3 Dolby Digital, 3/2 (L,C,R,l,r) + LFE ch, ~384 kbps avg-MediaInfo
Complete name : E:\РАЗДАЧИ\Exposed (2016) WEB-DL 720p.mkv
Format : Matroska
Format version : Version 2
File size : 3.33 GiB
Duration : 1h 42mn
Overall bit rate : 4 650 Kbps
Encoded date : UTC 2016-02-01 21:57:16
Writing application : mkvmerge v7.8.0 ('River Man') 32bit built on Apr 3 2015 12:11:22
Writing library : libebml v1.3.1 + libmatroska v1.4.2
Video
ID : 1
Format : AVC
Format/Info : Advanced Video Codec
Format profile : Main@L3.1
Format settings, CABAC : No
Format settings, ReFrames : 2 frames
Codec ID : V_MPEG4/ISO/AVC
Duration : 1h 42mn
Bit rate : 3 982 Kbps
Width : 1 280 pixels
Height : 542 pixels
Display aspect ratio : 2.35:1
Frame rate mode : Constant
Frame rate : 23.976 fps
Color space : YUV
Chroma subsampling : 4:2:0
Bit depth : 8 bits
Scan type : Progressive
Bits/(Pixel*Frame) : 0.239
Stream size : 2.85 GiB (86%)
Language : English
Default : Yes
Forced : No
Color primaries : BT.709
Transfer characteristics : BT.709
Matrix coefficients : BT.709
Audio #1
ID : 2
Format : AC-3
Format/Info : Audio Coding 3
Mode extension : CM (complete main)
Format settings, Endianness : Big
Codec ID : A_AC3
Duration : 1h 42mn
Bit rate mode : Constant
Bit rate : 192 Kbps
Channel(s) : 2 channels
Channel positions : Front: L R
Sampling rate : 48.0 KHz
Bit depth : 16 bits
Compression mode : Lossy
Stream size : 141 MiB (4%)
Language : Russian
Default : Yes
Forced : No
Audio #2
ID : 3
Format : AC-3
Format/Info : Audio Coding 3
Mode extension : CM (complete main)
Format settings, Endianness : Big
Codec ID : A_AC3
Duration : 1h 42mn
Bit rate mode : Constant
Bit rate : 384 Kbps
Channel(s) : 6 channels
Channel positions : Front: L C R, Side: L R, LFE
Sampling rate : 48.0 KHz
Bit depth : 16 bits
Compression mode : Lossy
Stream size : 282 MiB (8%)
Language : English
Default : No
Forced : No
Text
ID : 4
Format : UTF-8
Codec ID : S_TEXT/UTF8
Codec ID/Info : UTF-8 Plain Text
Language : English
Default : No
Forced : No
Menu
00:00:00.000 : en:1
00:10:26.000 : en:2
00:21:25.000 : en:3
00:33:54.000 : en:4
00:44:18.000 : en:5
00:56:48.000 : en:6
01:06:59.000 : en:7
01:17:18.000 : en:8
01:26:56.000 : en:9
01:34:02.000 : en:10
Скриншоты
Скачать

Скачать торрент!

Как скачивать? · Что такое торрент? · Рейтинг и ограничения

Сайт не распространяет и не хранит электронные версии произведений, а лишь предоставляет доступ к создаваемому пользователями каталогу ссылок на торрент-файлы, которые содержат только списки хеш-сумм

[Профиль] [ЛС]
Показать сообщения:    
Ответить на тему

Текущее время: Сегодня 13:41

Часовой пояс: GMT + 4



Вы не можете начинать темы
Вы не можете отвечать на сообщения
Вы не можете редактировать свои сообщения
Вы не можете удалять свои сообщения
Вы не можете голосовать в опросах
Вы не можете прикреплять файлы к сообщениям
Вы не можете скачивать файлы