Механические убийцы / Уничножители / Eliminators (Питер Манугян / Peter Manoogian) [1986, США, Испания, фантастика, BDRemux 1080p] 2x MVO + Original Eng + Sub Eng

Ответить на тему
 
Автор Сообщение

user ®

Стаж: 7 лет 7 месяцев

Сообщений: 20008

Пост Пост: #1 от 04-Фев-2016 02:15

[Цитировать]

Механические убийцы / Eliminators
Год выпуска: 1986
Страна: США, Испания
Жанр: фантастика, боевик, приключения
Продолжительность: 01:35:26
Перевод1: Профессиональный (многолосый закадровый)(ТВ3)
Перевод2: Профессиональный (многолосый закадровый)(СТС)
Субтитры: английские
Оригинальная аудиодорожка: английский
Режиссер: Питер Манугян / Peter Manoogian
В ролях: Эндрю Прайн, Дениз Кросби, Патрик Бирн, Конан Ли, Рой Дотрис, Питер Шрум, Пегги Мэнникс, Фаусто Бара, Тэд Хорино, Луис Лоренсо
Описание: Ученый Эбботт Ривз занимается экспериментами по перемещению во времени в лаборатории, расположенной в мексиканских джунглях. Ривз просит своего помощника доктора Такаду уничтожить их создание: человека-дроида. Дело в том, что робота начинают посещать воспоминания о его человеческом прошлом. Но вместо этого доктор Такада помогает человеку-дроиду убежать из лаборатории. Он советует ему отправляться на поиски специалиста по робототехнике Норы Хантер. Через некоторое время тот находит ее. Женщина удивлена известием о том, что доктор Ривз жив. Она понимает, что именно он украл идею человека-дроида у нее. Нора немедленно собирает экспедицию в мексиканские джунгли вместе с роботом, опытным моряком Гарри Фонтаной и сыном-ниндзя доктора Такады, который хочет найти своего отца. Во время путешествия героям придется сразиться с речными пиратами и неандертальцами, которых переместил из будущего доктор Ривз. Вскоре Нора узнает, что Ривз намеревается переместиться в прошлое и стать императором Рима…

Качество: BDRemux 1080p
Формат: MKV
Видео кодек: H.264
Аудио кодек: AC3, FLAC
Видео: 1920 x 1080 / MPEG-4 AVC Video / 24998 kbps / 1080p / 23.976 fps / 16:9 / High Profile 4.1
Аудио1: Русский / AC3 / 2.0 / 192 Kbps / 48,0 kHz(TV3)
Аудио2: Русский / AC3 / 2.0 / 192 Kbps / 48,0 kHz(CTC)
Аудио3: English / FLAC / 2.0 / 48 kHz / ~374 kbps (Original)
Субтитры: Soft Sub (SRT)
Главы
MediaInfo
Общее
Уникальный идентификатор : 228610210024789976112937197269683488381 (0xABFCB9939116149C98216940FAB3467D)
Полное имя : G:\Eliminators.1986.BDRemux.1080p.2xRus.Eng.mkv
Формат : Matroska
Версия формата : Version 4 / Version 2
Размер файла : 17,1 Гбайт
Продолжительность : 1 ч. 35 м.
Режим общего битрейта : Переменный
Общий поток : 25,6 Мбит/сек
Название фильма : Eliminators
Дата кодирования : UTC 2016-02-02 06:44:15
Программа кодирования : mkvmerge v7.3.0 ('Nouages') 32bit built on Oct 22 2014 18:44:01
Библиотека кодирования : libebml v1.3.0 + libmatroska v1.4.1
DURATION : 01:31:52.298000000
NUMBER_OF_FRAMES : 1040
NUMBER_OF_BYTES : 26179
_STATISTICS_WRITING_APP : mkvmerge v7.3.0 ('Nouages') 32bit built on Oct 22 2014 18:44:01
_STATISTICS_WRITING_DATE_UTC : 2016-02-02 06:44:15
_STATISTICS_TAGS : BPS DURATION NUMBER_OF_FRAMES NUMBER_OF_BYTES
Видео
Идентификатор : 1
Формат : AVC
Формат/Информация : Advanced Video Codec
Профиль формата : High@L4.1
Параметр CABAC формата : Да
Параметр ReFrames формата : 4 кадра
Идентификатор кодека : V_MPEG4/ISO/AVC
Продолжительность : 1 ч. 35 м.
Вид битрейта : Переменный
Максимальный битрейт : 28,0 Мбит/сек
Ширина : 1920 пикселей
Высота : 1080 пикселей
Соотношение сторон : 16:9
Режим частоты кадров : Постоянный
Частота кадров : 23,976 кадра/сек
Цветовое пространство : YUV
Субдискретизация насыщенности : 4:2:0
Битовая глубина : 8 бит
Тип развёртки : Прогрессивная
Заголовок : The.Dungeonmaster.1984.Eliminators.1986.COMPLETE.BLURAY-GF44
Default : Нет
Forced : Нет
Аудио #1
Идентификатор : 2
Формат : AC-3
Формат/Информация : Audio Coding 3
Расширение режима : CM (complete main)
Параметр Endianness формата : Big
Идентификатор кодека : A_AC3
Продолжительность : 1 ч. 35 м.
Вид битрейта : Постоянный
Битрейт : 192 Кбит/сек
Каналы : 2 канала
Расположение каналов : Front: L R
Частота : 48,0 КГц
Метод сжатия : С потерями
Размер потока : 131 Мбайт (1%)
Заголовок : TV3 AC3 2.0 192 kbps
Язык : Russian
Default : Нет
Forced : Нет
Аудио #2
Идентификатор : 3
Формат : AC-3
Формат/Информация : Audio Coding 3
Расширение режима : CM (complete main)
Параметр Endianness формата : Big
Идентификатор кодека : A_AC3
Продолжительность : 1 ч. 35 м.
Вид битрейта : Постоянный
Битрейт : 192 Кбит/сек
Каналы : 2 канала
Расположение каналов : Front: L R
Частота : 48,0 КГц
Метод сжатия : С потерями
Размер потока : 131 Мбайт (1%)
Заголовок : CTC AC3 2.0 192 kbps
Язык : Russian
Default : Нет
Forced : Нет
Аудио #3
Идентификатор : 4
Формат : FLAC
Формат/Информация : Free Lossless Audio Codec
Идентификатор кодека : A_FLAC
Продолжительность : 1 ч. 35 м.
Вид битрейта : Переменный
Каналы : 2 канала
Частота : 48,0 КГц
Битовая глубина : 16 бит
Заголовок : Original FLAC 2.0 ~374 kbps
Библиотека кодирования : libFLAC 1.2.1 (UTC 2007-09-17)
Язык : English
Default : Нет
Forced : Нет
Текст
Идентификатор : 5
Формат : UTF-8
Идентификатор кодека : S_TEXT/UTF8
Идентификатор кодека/Информация : UTF-8 Plain Text
Язык : English
Default : Нет
Forced : Нет
Меню
00:00:00.000 : en:00:00:00.000
00:10:27.627 : en:00:10:27.627
00:19:34.173 : en:00:19:34.173
00:27:23.642 : en:00:27:23.642
00:40:05.028 : en:00:40:05.028
00:51:27.042 : en:00:51:27.042
00:58:45.480 : en:00:58:45.480
01:05:53.825 : en:01:05:53.825
01:12:13.996 : en:01:12:13.996
01:20:07.386 : en:01:20:07.386
01:26:40.821 : en:01:26:40.821
01:32:51.399 : en:01:32:51.399
Сэмпл Скриншоты
Скачать

Скачать торрент!

Как скачивать? · Что такое торрент? · Рейтинг и ограничения

Сайт не распространяет и не хранит электронные версии произведений, а лишь предоставляет доступ к создаваемому пользователями каталогу ссылок на торрент-файлы, которые содержат только списки хеш-сумм

[Профиль] [ЛС]
Показать сообщения:    
Ответить на тему

Текущее время: Сегодня 05:55

Часовой пояс: GMT + 4



Вы не можете начинать темы
Вы не можете отвечать на сообщения
Вы не можете редактировать свои сообщения
Вы не можете удалять свои сообщения
Вы не можете голосовать в опросах
Вы не можете прикреплять файлы к сообщениям
Вы не можете скачивать файлы