Отрочество / Boyhood (Ричард Линклейтер / Richard Linklater) [2014, США, драма, BDRip 720p] Dub (НТВ+) + VO (А. Дасевич) + Sub Rus, Ukr, Eng + Original Eng

Ответить на тему
 
Автор Сообщение

user ®

Стаж: 7 лет 7 месяцев

Сообщений: 20008

Пост Пост: #1 от 03-Фев-2016 03:51

[Цитировать]

Отрочество / Boyhood
Страна: США
Жанр: Драма
Год выпуска: 2014
Продолжительность: 02:45:16
Перевод 1: Профессиональный (дублированный) | НТВ+
Перевод 2: Одноголосый закадровый | А. Дасевич
Cубтитры: русские, украинские, английские
Оригинальная аудиодорожка: английский--Режиссер: Ричард Линклейтер / Richard Linklater--В ролях: Эллар Колтрейн, Итан Хоук, Патриция Аркетт, Лорелей Линклейтер, Либби Виллари, Элайджа Смит, Стивен Честер Принц, Бонни Кросс, Сидни Орта, Марко Перелья, Джэми Ховард, Эндрю Вилларриал--Описание: История охватывает двенадцать лет жизни Мейсона (от первого класса в школе до первого дня в колледже) и складывается из небольших эпизодов, показывающих взросление и отношения с родителями ребёнка, подростка, юноши.--Доп. информация: | IMDB | КиноПоиск | Сэмпл |--Источник: 1080p FRA Blu-ray AVC DTS-HD MA 5.1-WiHD
Тип релиза: BDRip 720p
Контейнер: MKV
Видео: x264@L4.1, 1280x692, 10.7 Mbps, 23.976 fps.
Аудио 1: 48 kHz, AC3, 3/2 (L,C,R,l,r) + LFE ch, 384.00 kbps | Дубляж, НТВ+
Аудио 2: 48 kHz, DTS, 3/2 (L,C,R,l,r) + LFE ch, 1510 kbps avg | Одноголосый закадровый, А. Дасевич
Аудио 3: 48 kHz, DTS, 3/2 (L,C,R,l,r) + LFE ch, 1510 kbps avg | Original
Формат субтитров: softsub (SRT)
Скриншоты MediaInfo
General
Unique ID : 229784619109872574251098223707986855117 (0xACDEE86A30A88B7A8A9BBA7360E004CD)
Complete name : Boyhood (2014) 720p BDRip.mkv
Format : Matroska
Format version : Version 2
File size : 16.6 GiB
Duration : 2h 45mn
Overall bit rate : 14.4 Mbps
Movie name : Boyhood (2014) - Release for HDCLUB
Encoded date : UTC 2016-01-14 18:06:56
Writing application : mkvmerge v5.7.0 ('The Whirlwind') built on Jul 8 2012 20:08:51
Writing library : libebml v1.2.3 + libmatroska v1.3.0
Video
ID : 1
Format : AVC
Format/Info : Advanced Video Codec
Format profile : High@L4.1
Format settings, CABAC : Yes
Format settings, ReFrames : 9 frames
Codec ID : V_MPEG4/ISO/AVC
Duration : 2h 45mn
Bit rate : 10.7 Mbps
Width : 1 280 pixels
Height : 692 pixels
Display aspect ratio : 1.85:1
Frame rate mode : Constant
Frame rate : 23.976 (24000/1001) fps
Color space : YUV
Chroma subsampling : 4:2:0
Bit depth : 8 bits
Scan type : Progressive
Bits/(Pixel*Frame) : 0.504
Stream size : 12.4 GiB (74%)
Writing library : x264 core 148 r2638kMod 7599210
Encoding settings : cabac=1 / ref=9 / deblock=1:-3:-3 / analyse=0x3:0x133 / me=tesa / subme=10 / psy=1 / fade_compensate=0.00 / psy_rd=1.10:0.00 / mixed_ref=1 / me_range=24 / chroma_me=1 / trellis=2 / 8x8dct=1 / cqm=0 / deadzone=21,11 / fast_pskip=0 / chroma_qp_offset=-2 / threads=12 / lookahead_threads=2 / sliced_threads=0 / nr=0 / decimate=0 / interlaced=0 / bluray_compat=0 / constrained_intra=0 / fgo=0 / bframes=7 / b_pyramid=2 / b_adapt=2 / b_bias=0 / direct=3 / weightb=1 / open_gop=0 / weightp=2 / keyint=250 / keyint_min=23 / scenecut=40 / intra_refresh=0 / rc_lookahead=60 / rc=crf / mbtree=0 / crf=17.2000 / qcomp=0.60 / qpmin=0 / qpmax=69 / qpstep=4 / vbv_maxrate=62500 / vbv_bufsize=78125 / crf_max=0.0 / nal_hrd=none / filler=0 / ip_ratio=1.20 / pb_ratio=1.10 / aq=3:0.70
Language : English
Default : Yes
Forced : No
Audio #1
ID : 2
Format : AC-3
Format/Info : Audio Coding 3
Mode extension : CM (complete main)
Format settings, Endianness : Big
Codec ID : A_AC3
Duration : 2h 45mn
Bit rate mode : Constant
Bit rate : 384 Kbps
Channel(s) : 6 channels
Channel positions : Front: L C R, Side: L R, LFE
Sampling rate : 48.0 KHz
Frame rate : 31.250 fps (1536 spf)
Compression mode : Lossy
Stream size : 454 MiB (3%)
Title : |Дубляж, НТВ+|
Language : Russian
Default : Yes
Forced : No
Audio #2
ID : 3
Format : DTS
Format/Info : Digital Theater Systems
Mode : 16
Format settings, Endianness : Big
Codec ID : A_DTS
Duration : 2h 45mn
Bit rate mode : Constant
Bit rate : 1 509 Kbps
Channel(s) : 6 channels
Channel positions : Front: L C R, Side: L R, LFE
Sampling rate : 48.0 KHz
Frame rate : 93.750 fps (512 spf)
Bit depth : 24 bits
Compression mode : Lossy
Stream size : 1.74 GiB (10%)
Title : |Одноголосый закадровый, А. Дасевич|
Language : Russian
Default : No
Forced : No
Audio #3
ID : 4
Format : DTS
Format/Info : Digital Theater Systems
Mode : 16
Format settings, Endianness : Big
Codec ID : A_DTS
Duration : 2h 45mn
Bit rate mode : Constant
Bit rate : 1 509 Kbps
Channel(s) : 6 channels
Channel positions : Front: L C R, Side: L R, LFE
Sampling rate : 48.0 KHz
Frame rate : 93.750 fps (512 spf)
Bit depth : 24 bits
Compression mode : Lossy
Stream size : 1.74 GiB (10%)
Language : English
Default : No
Forced : No
Text #1
ID : 5
Format : UTF-8
Codec ID : S_TEXT/UTF8
Codec ID/Info : UTF-8 Plain Text
Language : Russian
Default : No
Forced : No
Text #2
ID : 6
Format : UTF-8
Codec ID : S_TEXT/UTF8
Codec ID/Info : UTF-8 Plain Text
Language : Ukrainian
Default : No
Forced : No
Text #3
ID : 7
Format : UTF-8
Codec ID : S_TEXT/UTF8
Codec ID/Info : UTF-8 Plain Text
Language : English
Default : No
Forced : No
Text #4
ID : 8
Format : UTF-8
Codec ID : S_TEXT/UTF8
Codec ID/Info : UTF-8 Plain Text
Title : SDH
Language : English
Default : No
Forced : No
Menu
00:00:00.000 : en:00:00:00.000
00:11:07.125 : en:00:11:07.125
00:31:31.014 : en:00:31:31.014
00:49:12.533 : en:00:49:12.533
01:01:10.876 : en:01:01:10.876
01:12:00.525 : en:01:12:00.525
01:26:27.182 : en:01:26:27.182
01:43:09.183 : en:01:43:09.183
01:53:53.744 : en:01:53:53.744
02:10:46.547 : en:02:10:46.547
02:27:26.755 : en:02:27:26.755
02:39:33.773 : en:02:39:33.773
Скачать

Скачать торрент!

Как скачивать? · Что такое торрент? · Рейтинг и ограничения

Сайт не распространяет и не хранит электронные версии произведений, а лишь предоставляет доступ к создаваемому пользователями каталогу ссылок на торрент-файлы, которые содержат только списки хеш-сумм

[Профиль] [ЛС]
Показать сообщения:    
Ответить на тему

Текущее время: Сегодня 22:33

Часовой пояс: GMT + 4



Вы не можете начинать темы
Вы не можете отвечать на сообщения
Вы не можете редактировать свои сообщения
Вы не можете удалять свои сообщения
Вы не можете голосовать в опросах
Вы не можете прикреплять файлы к сообщениям
Вы не можете скачивать файлы