33 / The 33 (Патрисия Ригген / Patricia Riggen) [2015, США, Чили, драма, биография, история, BDRip 720p] MVO (IDEAFILM) + Original Eng + Sub Eng

Ответить на тему
 
Автор Сообщение

user ®

Стаж: 7 лет 7 месяцев

Сообщений: 20008

Пост Пост: #1 от 03-Фев-2016 03:51

[Цитировать]

33 / The 33
Страна: США, Чили
Жанр: драма, биография, история
Год выпуска: 2015
Продолжительность: 02:07:09
Перевод: Профессиональный (многоголосый закадровый) IDEAFILM
Оригинальная дорожка: английская
Cубтитры: английские
Режиссер: Патрисия Ригген / Patricia Riggen
В ролях: Антонио Бандерас, Родриго Санторо, Жюльет Бинош, Джеймс Бролин, Лу Даймонд Филлипс, Марио Касас, Джейкоб Варгас, Хуан Пабло Раба, Оскар Нунез, Теноч Уэрта
Описание: Фильм, основанный на реальных событиях, расскажет о тридцати трех чилийских шахтерах, которые в 2010 году на 69 дней оказались в ловушке под землей.- -Качество видео: BDRip 720p | EPiC
Формат видео: MKV
Видео: MPEG-4 AVC Video ~7.7 Mbps 1280x534 / 23,976 fps / 2.40:1 / High Profile 4.1
Аудио:
Russian: 48 kHz, AC3 Dolby Digital, 3/2 (L,C,R,l,r) + LFE ch, ~384 kbps
English: 48 kHz, DTS, 3/2 (L,C,R,l,r) + LFE ch, ~1509.00 kbps avg
Формат субтитров: softsub (SRT)

Скриншоты Дополнительная информация о раздаче
Исходник
The.33.2015.COMPLETE.BLURAY-CBGB
Сравнения
.Comparisons............................SOURCE...................................................EPiC.....................................................................Scene






MediaInfo
Уникальный идентификатор                 : 210245844848067453480097176681557912014 (0x9E2BE077C5D941008CEDB598C055E9CE)
Полное имя                               : E:\V.temp\33\The.33.2015.BluRay.720p.DTS.x264-EPiC\The.33.2015.BluRay.720p.DTS.x264.mkv
Формат                                   : Matroska
Версия формата                           : Version 4 / Version 2
Размер файла                             : 8,51 Гбайт
Продолжительность                        : 2 ч. 7 м.
Общий поток                              : 9580 Кбит/сек
Название фильма                          : The.33.2015.BluRay.720p.DTS.x264-EPiC@HDArea
Дата кодирования                         : UTC 2016-02-01 06:45:51
Программа кодирования                    : mkvmerge v8.3.0 ('Over the Horizon') 32bit
Библиотека кодирования                   : libebml v1.3.1 + libmatroska v1.4.2
Обложка                                  : Yes
Attachments                              : cover.jpg
Видео
Идентификатор                            : 1
Формат                                   : AVC
Формат/Информация                        : Advanced Video Codec
Профиль формата                          : High@L4.1
Параметр CABAC формата                   : Да
Параметр ReFrames формата                : 12 кадров
Идентификатор кодека                     : V_MPEG4/ISO/AVC
Продолжительность                        : 2 ч. 7 м.
Битрейт                                  : 7686 Кбит/сек
Ширина                                   : 1280 пикселей
Высота                                   : 534 пикселя
Соотношение сторон                       : 2,40:1
Режим частоты кадров                     : Постоянный
Частота кадров                           : 23,976 (24000/1001) кадра/сек
Цветовое пространство                    : YUV
Субдискретизация насыщенности            : 4:2:0
Битовая глубина                          : 8 бит
Тип развёртки                            : Прогрессивная
Бит/(Пиксели*Кадры)                      : 0.469
Размер потока                            : 6,83 Гбайт (80%)
Заголовок                                : The.33.2015.BluRay.720p.DTS.x264-EPiC@HDArea
Библиотека кодирования                   : x264 core 146 r2538 121396c
Настройки программы                      : cabac=1 / ref=12 / deblock=1:-2:-1 / analyse=0x3:0x133 / me=umh / subme=11 / psy=1 / psy_rd=1.05:1.00 / mixed_ref=1 / me_range=32 / chroma_me=1 / trellis=2 / 8x8dct=1 / cqm=0 / deadzone=21,11 / fast_pskip=0 / chroma_qp_offset=-4 / threads=6 / lookahead_threads=1 / sliced_threads=0 / nr=0 / decimate=0 / interlaced=0 / bluray_compat=0 / constrained_intra=0 / bframes=8 / b_pyramid=2 / b_adapt=2 / b_bias=0 / direct=3 / weightb=1 / open_gop=0 / weightp=2 / keyint=240 / keyint_min=23 / scenecut=40 / intra_refresh=0 / rc_lookahead=60 / rc=crf / mbtree=0 / crf=17.5 / qcomp=0.60 / qpmin=0 / qpmax=69 / qpstep=4 / vbv_maxrate=40000 / vbv_bufsize=30000 / crf_max=0.0 / nal_hrd=none / filler=0 / ip_ratio=1.40 / pb_ratio=1.30 / aq=1:1.00
Язык                                     : English
Default                                  : Да
Forced                                   : Нет
Аудио #1
Идентификатор                            : 2
Формат                                   : AC-3
Формат/Информация                        : Audio Coding 3
Расширение режима                        : CM (complete main)
Параметр Endianness формата              : Big
Идентификатор кодека                     : A_AC3
Продолжительность                        : 2 ч. 7 м.
Вид битрейта                             : Постоянный
Битрейт                                  : 384 Кбит/сек
Каналы                                   : 6 каналов
Расположение каналов                     : Front: L C R, Side: L R, LFE
Частота                                  : 48,0 КГц
Частота кадров                           : 31,250 кадров/сек (1536 spf)
Метод сжатия                             : С потерями
Размер потока                            : 349 Мбайт (4%)
Заголовок                                : DD5.1@384kbps
Язык                                     : Russian
Default                                  : Да
Forced                                   : Нет
Аудио #2
Идентификатор                            : 3
Формат                                   : DTS
Формат/Информация                        : Digital Theater Systems
Режим                                    : 16
Параметр Endianness формата              : Big
Идентификатор кодека                     : A_DTS
Продолжительность                        : 2 ч. 7 м.
Вид битрейта                             : Постоянный
Битрейт                                  : 1509 Кбит/сек
Каналы                                   : 6 каналов
Расположение каналов                     : Front: L C R, Side: L R, LFE
Частота                                  : 48,0 КГц
Частота кадров                           : 93,750 кадра/сек (512 spf)
Битовая глубина                          : 24 бит
Метод сжатия                             : С потерями
Размер потока                            : 1,34 Гбайт (16%)
Заголовок                                : DTS5.1@1509kbps
Язык                                     : English
Default                                  : Нет
Forced                                   : Нет
Текст
Идентификатор                            : 4
Формат                                   : UTF-8
Идентификатор кодека                     : S_TEXT/UTF8
Идентификатор кодека/Информация          : UTF-8 Plain Text
Продолжительность                        : 1 ч. 53 м.
Битрейт                                  : 47 бит/сек
Count of elements                        : 1452
Размер потока                            : 39,5 Кбайт (0%)
Default                                  : Да
Forced                                   : Нет
Меню
00:00:00.000                             : en:00:00:00.000
00:11:13.965                             : en:00:11:13.965
00:21:10.436                             : en:00:21:10.436
00:30:22.362                             : en:00:30:22.362
00:41:54.679                             : en:00:41:54.679
00:51:01.684                             : en:00:51:01.684
01:01:35.317                             : en:01:01:35.317
01:11:18.983                             : en:01:11:18.983
01:24:02.412                             : en:01:24:02.412
01:34:12.689                             : en:01:34:12.689
01:45:17.561                             : en:01:45:17.561
01:56:48.460                             : en:01:56:48.460
Скачать

Скачать торрент!

Как скачивать? · Что такое торрент? · Рейтинг и ограничения

Сайт не распространяет и не хранит электронные версии произведений, а лишь предоставляет доступ к создаваемому пользователями каталогу ссылок на торрент-файлы, которые содержат только списки хеш-сумм

[Профиль] [ЛС]
Показать сообщения:    
Ответить на тему

Текущее время: Сегодня 13:41

Часовой пояс: GMT + 4



Вы не можете начинать темы
Вы не можете отвечать на сообщения
Вы не можете редактировать свои сообщения
Вы не можете удалять свои сообщения
Вы не можете голосовать в опросах
Вы не можете прикреплять файлы к сообщениям
Вы не можете скачивать файлы