Метро (Антон Мегердичев) [2012, фильм-катастрофа, драма, триллер, HDTVRip] [Open Matte]

Ответить на тему
 
Автор Сообщение

user ®

Стаж: 7 лет 7 месяцев

Сообщений: 20008

Пост Пост: #1 от 03-Фев-2016 03:51

[Цитировать]

Метро / Open Matte
Жанр: фильм-катастрофа, драма, триллер
Год выпуска: 2012
Продолжительность: 02:06:17
Режиссёр: Антон Мегердичев
В ролях: Сергей Пускепалис, Анатолий Белый, Анфиса Вистингаузен, Алексей Бардуков, Екатерина Шпица, Елена Панова, Станислав Дужников, Светлана Ходченкова, Сергей Сосновский, Ярослав Жалнин
Описание: Широко развернувшееся в центре Москвы строительство новых зданий приводит к тому, что в одном из тоннелей метро между двумя станциями возникает трещина. Никто себе и представить не мог, что в результате нарушения герметичности перекрытия в тоннель хлынет вода из Москва-реки, и сотни пассажиров поезда окажутся во власти надвигающегося потопа. Бешеный поток воды грозит не только обрушением тоннелей метро, но и разрушением всего города.
Среди попавших в беду людей — врач городской больницы Андрей Гарин и его дочь Ксюша. Гарин сражается с катастрофой, пытаясь спасти оставшихся в живых пассажиров, в том числе и …любовника своей жены. Гарину придется побороть обиду, гнев и страх. Он должен выжить, чтобы вернуть свою любовь, семью… свою прежнюю счастливую жизнь.
Доп. информация: Различия BD и HDTV - разное наполнение кадра - 16:9 (1.78:1) -> http://screenshotcomparison.com/comparison/157129/
Качество видео: HDTVRip-AVC
Формат видео: AVI
Видео: XviD / 2015 kbps / 720x384 / 25.000 fps
Аудио: AC3 / 6 ch / 448 kbps / 48 kHz
Rip by: Deadmauvlad
MediaInfo
General
Complete name : J:\Torrents\Metro.2013.O.HDTVRip.Open.Matte.2.18.GB.Deadmauvlad.avi
Format : AVI
Format/Info : Audio Video Interleave
Format profile : OpenDML
File size : 2.18 GiB
Duration : 2h 6mn
Overall bit rate : 2 475 Kbps
Movie name : Metro.2013.O.HDTVRip.Open.Matte.2.18.GB.Deadmauvlad
Director : Deadmauvlad
Genre : Триллер, драма, боевик
Writing application : VirtualDubMod 1.5.10.3 | www.virtualdub-fr.org || (build 2550/release)
Original source form/Name : Фильм
Copyright : R.G. GoldenShara
Video
ID : 0
Format : MPEG-4 Visual
Format profile : Advanced Simple@L5
Format settings, BVOP : 1
Format settings, QPel : No
Format settings, GMC : No warppoints
Format settings, Matrix : Custom
Codec ID : XVID
Codec ID/Hint : XviD
Duration : 2h 6mn
Bit rate : 2 015 Kbps
Width : 720 pixels
Height : 384 pixels
Display aspect ratio : 1.85:1
Frame rate : 25.000 fps
Color space : YUV
Chroma subsampling : 4:2:0
Bit depth : 8 bits
Scan type : Progressive
Compression mode : Lossy
Bits/(Pixel*Frame) : 0.291
Stream size : 1.78 GiB (81%)
Writing library : XviD 73
Audio
ID : 1
Format : AC-3
Format/Info : Audio Coding 3
Mode extension : CM (complete main)
Format settings, Endianness : Big
Codec ID : 2000
Duration : 2h 6mn
Bit rate mode : Constant
Bit rate : 448 Kbps
Channel(s) : 6 channels
Channel positions : Front: L C R, Side: L R, LFE
Sampling rate : 48.0 KHz
Frame rate : 31.250 fps (1536 spf)
Compression mode : Lossy
Stream size : 405 MiB (18%)
Alignment : Split accross interleaves
Interleave, duration : 40 ms (1.00 video frame)
Interleave, preload duratio : 500 ms
Скриншот c названием фильма Скриншоты
Скачать

Скачать торрент!

Как скачивать? · Что такое торрент? · Рейтинг и ограничения

Сайт не распространяет и не хранит электронные версии произведений, а лишь предоставляет доступ к создаваемому пользователями каталогу ссылок на торрент-файлы, которые содержат только списки хеш-сумм

[Профиль] [ЛС]
Показать сообщения:    
Ответить на тему

Текущее время: Сегодня 08:29

Часовой пояс: GMT + 4



Вы не можете начинать темы
Вы не можете отвечать на сообщения
Вы не можете редактировать свои сообщения
Вы не можете удалять свои сообщения
Вы не можете голосовать в опросах
Вы не можете прикреплять файлы к сообщениям
Вы не можете скачивать файлы