Головоломка / Inside Out (Пит Доктер / Pete Docter, Роналдо Дель Кармен / Ronnie Del Carmen) [2015, США, мультипликация, современная сказка, приключения, WEB-DLRip, локализованный видеоряд] Dub + Dub Ukr + Sub Rus, Eng + Original Eng

Ответить на тему
 
Автор Сообщение

user ®

Стаж: 12 лет

Сообщений: 15145

Пост Пост: #1 от 02-Фев-2016 05:54

[Цитировать]

Головоломка / Inside Out
Страна: США
Жанр: мультипликация, современная сказка, приключения
Продолжительность: 01:34:50
Год выпуска: 2015
Перевод #1: Профессиональный (дублированный) русский (Blu-ray CEE)
Перевод #2: Профессиональный (дублированный) украинский (Disney / Buena Vista) отдельно вложенный
Субтитры: русские, английские (eng.sdh.colored, eng.sdh, eng, rus - all subRip format) отдельно вложенные
Оригинальная аудиодорожка: английский
Режиссёры: Пит Доктер / Pete Docter, Роналдо Дель Кармен / Ronnie Del Carmen
Роли озвучивали: Дайан Лэйн, Эми Пехлер, Кайл Маклахлен, Минди Калинг, Билли Хадер, Филлис Смит, Льюис Блэк, Джесс Харнелл, Тереза Ганзел, Карлос Алазраки, Ларэйн Ньюман, Лори Алан, Пола Паундстоун, Боб Берген, Джон Циган, Дэнни Манн, Шерри Линн, Жан Рэбсон, Микки Макгоун, и др.
Роли дублировали: Олеся Железняк, Владимир Епифанцев, Максим Виторган, Ксения Собчак, Дмитрий Нагиев, Виктор Григорьев, и др.
Краткая аннотация: Райли - обычная среднестатистическая одиннадцатилетняя американская школьница. Как и у многих из нас, её поведение определяют пять базовых эмоций: Радость, Печаль, Страх, Гнев и Брезгливость. Эмоции живут в сознании девочки, и каждый день помогают ей справляться с возникающими трудностями по мере их поступления, и руководят её поступками. До поры до времени эмоции живут дружно, но вдруг Райли с родителями переезжает из родного привычного провинциального уюта - в чужой огромный, шумный, многолюдный, безликий серый город... Впервые за всю жизнь, мир обрушился вокруг девочки. Мир обрушился и в её сознании, девочка погружается в уныние... Каждая из эмоций считает, что именно она лучше других знает, что нужно делать в этой непростой ситуации, и в голове у девочки наступает полная неразбериха, и девочка впадает в глубокую депрессию...
Чтобы наладить жизнь на новом месте, освоиться в новой школе, подружиться с новыми одноклассниками, эмоциям Райли предстоит приложить немало новых усилий...
Дополнительная информация: Локализованный видеоряд

Качество: WEB-DLRip
Формат: AVI
Video: XviD 73 MPEG-4, 720x400 (16:9) 23.976 fps, ~2391 kbps avg, 0.346 bit/pixel
Audio #1: AC-3 Dolby Digital, CBR 448 kbps 6 ch (Front: L C R, Side: L R, LFE) 48.0 KHz русский
Audio #2: AC-3 Dolby Digital, CBR 448 kbps 6 ch (Front: L C R, Side: L R, LFE) 48.0 KHz английский
Audio #3: AC-3 Dolby Digital, CBR 448 kbps 6 ch (Front: L C R, Side: L R, LFE) 48.0 KHz украинский отдельно
MediaInfo
ОбщееПолное имя : P:\Inside_Out_2015_WEB-DLRip_[***]\Inside_Out_2015_WEB-DLRip_[***].aviФормат : AVIФормат/Информация : Audio Video InterleaveПрофиль формата : OpenDMLРазмер файла : 2,19 ГбайтПродолжительность : 1 ч. 34 м.Общий поток : 3304 Кбит/секНазвание фильма : Inside_Out_2015_WEB-DLRip_[***]Режиссёр : OGORODNIKOFFFЖанр : Сказка, приключенияПрограмма кодирования : VirtualDubModRus 1.5.10.2 (build 2542/release)Библиотека кодирования : VirtualDubMod build 2542/releaseФормат оригинала/Имя : МультипликацияПравообладатель : rutracker.orgПримечание : Дата рипа 22 ноября 2015 года
ВидеоИдентификатор : 0Формат : MPEG-4 VisualПрофиль формата : Advanced Simple@L5Параметр BVOP формата : 1Параметр QPel формата : НетПараметр GMC формата : Без точки переходаПараметр матрицы формата : ВыборочнаяИдентификатор кодека : DX50Идентификатор кодека/Подсказка : DivX 5Продолжительность : 1 ч. 34 м.Битрейт : 2391 Кбит/секШирина : 720 пикселейВысота : 400 пикселейСоотношение сторон : 16:9Частота кадров : 23,976 кадра/секЦветовое пространство : YUVСубдискретизация насыщенности : 4:2:0Битовая глубина : 8 битТип развёртки : ПрогрессивнаяМетод сжатия : С потерямиБит/(Пиксели*Кадры) : 0.346Размер потока : 1,58 Гбайт (72%)Библиотека кодирования : XviD 73
Аудио #1Идентификатор : 1Формат : AC-3Формат/Информация : Audio Coding 3Расширение режима : CM (complete main)Параметр Endianness формата : BigИдентификатор кодека : 2000Продолжительность : 1 ч. 34 м.Вид битрейта : ПостоянныйБитрейт : 448 Кбит/секКаналы : 6 каналовРасположение каналов : Front: L C R, Side: L R, LFEЧастота : 48,0 КГцБитовая глубина : 16 битМетод сжатия : С потерямиЗадержка видео : 14 мс.Размер потока : 304 Мбайт (14%)Выравнивание : Разделение по промежуткамПродолжительность промежутка : 42 мс. (1,00 видеокадр)Время предзагрузки промежутка : 500 мс.
Аудио #2Идентификатор : 2Формат : AC-3Формат/Информация : Audio Coding 3Расширение режима : CM (complete main)Параметр Endianness формата : BigИдентификатор кодека : 2000Продолжительность : 1 ч. 34 м.Вид битрейта : ПостоянныйБитрейт : 448 Кбит/секКаналы : 6 каналовРасположение каналов : Front: L C R, Side: L R, LFEЧастота : 48,0 КГцБитовая глубина : 16 битМетод сжатия : С потерямиЗадержка видео : 28 мс.Размер потока : 304 Мбайт (14%)Выравнивание : Разделение по промежуткамПродолжительность промежутка : 42 мс. (1,00 видеокадр)Время предзагрузки промежутка : 500 мс.
ОбщееПолное имя : P:\Inside_Out_2015_WEB-DLRip_[***]\Inside_Out_2015_WEB-DLRip_[***].eng.sdh.colored.srtФормат : SubRipРазмер файла : 147 Кбайт
ТекстФормат : SubRipМетод сжатия : Без потерь
ОбщееПолное имя : P:\Inside_Out_2015_WEB-DLRip_[***]\Inside_Out_2015_WEB-DLRip_[***].eng.sdh.srtФормат : SubRipРазмер файла : 129 Кбайт
ТекстФормат : SubRipМетод сжатия : Без потерь
ОбщееПолное имя : P:\Inside_Out_2015_WEB-DLRip_[***]\Inside_Out_2015_WEB-DLRip_[***].eng.srtФормат : SubRipРазмер файла : 97,1 Кбайт
ТекстФормат : SubRipМетод сжатия : Без потерь
ОбщееПолное имя : P:\Inside_Out_2015_WEB-DLRip_[***]\Inside_Out_2015_WEB-DLRip_[***].rus.srtФормат : SubRipРазмер файла : 85,7 Кбайт
ТекстФормат : SubRipМетод сжатия : Без потерь
ОбщееПолное имя : P:\Inside_Out_2015_WEB-DLRip_[***]\Inside_Out_2015_WEB-DLRip_[***].ukr.ac3Формат : AC-3Формат/Информация : Audio Coding 3Размер файла : 304 МбайтПродолжительность : 1 ч. 34 м.Режим общего битрейта : ПостоянныйОбщий поток : 448 Кбит/сек
АудиоФормат : AC-3Формат/Информация : Audio Coding 3Расширение режима : CM (complete main)Параметр Endianness формата : BigПродолжительность : 1 ч. 34 м.Вид битрейта : ПостоянныйБитрейт : 448 Кбит/секКаналы : 6 каналовРасположение каналов : Front: L C R, Side: L R, LFEЧастота : 48,0 КГцБитовая глубина : 16 битМетод сжатия : С потерямиРазмер потока : 304 Мбайт (100%)
Скриншоты + Локализация Время раздачи - по возможности.
Скачать

Скачать торрент! Головоломка / Inside Out (Пит Доктер / Pete Docter, Роналдо Дель Кармен / Ronnie Del Carmen) [2015, США, мультипликация, современная сказка, приключения, WEB-DLRip, локализованный видеоряд] Dub + Dub Ukr + Sub Rus, Eng + Original Eng

Как скачивать? · Что такое торрент? · Рейтинг и ограничения

Сайт не распространяет и не хранит электронные версии произведений, а лишь предоставляет доступ к создаваемому пользователями каталогу ссылок на торрент-файлы, которые содержат только списки хеш-сумм

[Профиль] [ЛС]
Показать сообщения:    
Ответить на тему

Текущее время: Сегодня 21:18

Часовой пояс: GMT + 4



Вы не можете начинать темы
Вы не можете отвечать на сообщения
Вы не можете редактировать свои сообщения
Вы не можете удалять свои сообщения
Вы не можете голосовать в опросах
Вы не можете прикреплять файлы к сообщениям
Вы не можете скачивать файлы