Другая реальность / Ek Aur Haqiqat / Sitaramaraju (И.В.С. Човдари / Y.V.S. Chowdary) [1999, Индия, Боевик, драма, WEBRip] DVO (Ульпаней Эльром)

Ответить на тему
 
Автор Сообщение

user ®

Стаж: 12 лет

Сообщений: 15092

Пост Пост: #1 от 02-Фев-2016 05:54

[Цитировать]

Другая реальность / Ek Aur Haqiqat / Sitaramaraju
Страна: Индия
Жанр: Боевик, драма
Год выпуска: 1999
Продолжительность: 02:39:18
Перевод: Профессиональный (двухголосый закадровый) Ульпаней Эльром
Cубтитры: нет
Режиссер: И.В.С. Човдари / Y.V.S. Chowdary
В ролях: Нагарджуна Акинени, Харикришна Нандамури, Рави Теджа, Сакши Шивананд, Шриниваса Рао Кота, Сангхави, Нирмаламма, Брахмаджи, Чандрамохан
Описание: После смерти главы семейства ссора в его роду разделяет деревню на две части. Во главе одной из них становятся дети его первой жены, во второй - дети второй, считающиеся наложницей. Проходят годы, и конфликт становится все глубже, приводя к гибели многих людей. Наконец, одна из сторон делает предложение положить конец распрям...
Сэмпл: http://multi-up.com/1087136
Качество видео: WEBRip
Формат видео: AVI
Видео: XviD build 50, 720x304 (2.37:1), 24 fps, 1038 kbps avg
Аудио: AC3 Dolby Digital, 48 kHz, 2/0 (L,R) ch, 192.00 kbps
MediaInfo
General
Complete name : F:\Drugaya.realnost.1999.WEBRip.avi
Format : AVI
Format/Info : Audio Video Interleave
File size : 1.38 GiB
Duration : 2h 39mn
Overall bit rate : 1 240 Kbps
Writing application : VirtualDubMod 1.5.10.2 (build 2540/release)
Writing library : VirtualDubMod build 2540/release
Video
ID : 0
Format : MPEG-4 Visual
Format profile : AdvancedSimple@L5
Format settings, BVOP : Yes
Format settings, QPel : No
Format settings, GMC : No warppoints
Format settings, Matrix : Default (MPEG)
Codec ID : XVID
Codec ID/Hint : XviD
Duration : 2h 39mn
Bit rate : 1 039 Kbps
Width : 720 pixels
Height : 304 pixels
Display aspect ratio : 2.35
Frame rate : 24.000 fps
Resolution : 24 bits
Colorimetry : 4:2:0
Scan type : Progressive
Bits/(Pixel*Frame) : 0.198
Stream size : 1.16 GiB (84%)
Writing library : XviD 1.2.1 (UTC 2008-12-04)
Audio
ID : 1
Format : AC-3
Format/Info : Audio Coding 3
Codec ID : 2000
Duration : 2h 39mn
Bit rate mode : Constant
Bit rate : 192 Kbps
Channel(s) : 2 channels
Channel positions : L R
Sampling rate : 48.0 KHz
Stream size : 219 MiB (15%)
Alignment : Split accross interleaves
Interleave, duration : 42 ms (1.00 video frame)
Interleave, preload duration : 500 ms
Скриншот c названием фильма Скриншоты
Скачать

Скачать торрент! Другая реальность / Ek Aur Haqiqat / Sitaramaraju (И.В.С. Човдари / Y.V.S. Chowdary) [1999, Индия, Боевик, драма, WEBRip] DVO (Ульпаней Эльром)

Как скачивать? · Что такое торрент? · Рейтинг и ограничения

Сайт не распространяет и не хранит электронные версии произведений, а лишь предоставляет доступ к создаваемому пользователями каталогу ссылок на торрент-файлы, которые содержат только списки хеш-сумм

[Профиль] [ЛС]
Показать сообщения:    
Ответить на тему

Текущее время: Сегодня 15:05

Часовой пояс: GMT + 4



Вы не можете начинать темы
Вы не можете отвечать на сообщения
Вы не можете редактировать свои сообщения
Вы не можете удалять свои сообщения
Вы не можете голосовать в опросах
Вы не можете прикреплять файлы к сообщениям
Вы не можете скачивать файлы