Рейд 2 / The Raid 2: Berandal (Гарет Эванс / Gareth Evans) [2014 г., Индонезия, США, боевик, триллер, криминал, BDRip 720p] Dub (BD RUS) + AVO (Сербин) + 2x VO (Doctor Joker, Есарев) + Dub (Eng) + Original Ind + Sub (Rus, Eng)

Ответить на тему
 
Автор Сообщение

user ®

Стаж: 7 лет 7 месяцев

Сообщений: 20008

Пост Пост: #1 от 02-Фев-2016 05:54

[Цитировать]

-Рейд 2 / The Raid 2: Berandal«Один против всех» Страна: Индонезия, США
Студия: Pt. Merantau Films, XYZ Films
Жанр: боевик, триллер, криминал
Год выпуска: 2014
Продолжительность: 02:30:28-Перевод 1: Профессиональный (полное дублирование) BD RUS
Перевод 2: Авторский (одноголосый, закадровый) Ю. Сербин
Перевод 3: Одноголосый (закадровый) А. Матвеев aka Doctor_Joker**
Перевод 4: Одноголосый (закадровый) Д. Есарев**
Оригинальная аудиодорожка: индонезийская
Cубтитры: русские, английские
Режиссер: Гарет Эванс / Gareth Evans
В ролях: Ико Ювайс, Арифин Путра, Яян Рухьян, Джули Эстелль, Ока Антара, Алекс Аббад, Сесеп Ариф Рахман, Дони Аламсях, Тио Пакусодево, Рой Мартен
Описание: Из трех полицейских, выбравшихся из кровавого ада первой части, в живых остается только офицер Рама. Уволившись из спецназа, он пробует начать жизнь заново, но вскоре прошлое жестко напоминает о себе — преступники убивают его брата. Чтобы отомстить, он внедряется в мощный криминальный синдикат, где быстро поднимается до самых вершин бандитской иерархии. Врагов здесь еще больше, и каждый неверный шаг может оказаться последним. Здесь нет ни близких, ни друзей, ни любви, ни тоски, ни жалости!-
Сэмпл: скачать-Релиз от -
Автор рипа: Elheym
Качество: BDRip 720p (источник: / Blu-ray US [THE_RAID2_2014_HDCLUB] / 1080p)
Контейнер: MKV
Видео: 1280x532 (2.40:1), 23.976 fps, MPEG-4 AVC, ~4000 kbps avg, 0.245 bit/pixel
Аудио #1: Русский: AC3, 5.1, 48 kHz, ~640 Кбит/с | Профессиональный (полное дублирование) BD RUS |
Аудио #2: Русский: AC3, 5.1, 48 kHz, ~640 Кбит/с | Авторский (одноголосый, закадровый) Ю. Сербин |
Аудио #3: Русский: AC3, 5.1, 48 kHz, ~640 Кбит/с | Одноголосый (закадровый) А. Матвеев aka Doctor_Joker** |
Аудио #4: Русский: AC3, 5.1, 48 kHz, ~640 Кбит/с | Одноголосый (закадровый) Д. Есарев** |
Аудио #5: Английский: AC3, 5.1, 48 kHz, ~640 Кбит/с | Профессиональный (полное дублирование) |
Аудио #6: Индонезийский: AC3, 5.1, 48 kHz, ~640 Кбит/с | Оригинал |
Субтитры: русские (полные: BD, Матвеев**), английские (полные х2, полные SDH, полные SDH цветные)
Главы: присутствуют, сохранены оригинальные
MediaInfo
Уникальный идентификатор : 205678647253304319509205120839667084178 (0x9ABC443DB5C25EBE8CC066C99396EB92)
Полное имя : The.Raid.2.Berandal.2014.720p.BluRay.4xRus.Eng.Ind.-HQCLUB.mkv
Формат : Matroska
Версия формата : Version 2
Размер файла : 8,24 Гбайт
Продолжительность : 2 ч. 30 м.
Общий поток : 7844 Кбит/сек
Название фильма : Рейд 2 / The Raid 2: Berandal [US] (2014) BDRip 720p by HQCLUB [Elheym]
Дата кодирования : UTC 2015-05-04 17:48:16
Программа кодирования : mkvmerge v5.2.0 ('I can't explain') built on Dec 18 2011 18:12:03
Библиотека кодирования : libebml v1.2.3 + libmatroska v1.3.0
Attachements : Cover.png
Видео
Идентификатор : 1
Формат : AVC
Формат/Информация : Advanced Video Codec
Профиль формата : High@L4.1
Параметр CABAC формата : Да
Параметр ReFrames формата : 11 кадров
Идентификатор кодека : V_MPEG4/ISO/AVC
Продолжительность : 2 ч. 30 м.
Битрейт : 4000 Кбит/сек
Ширина : 1280 пикселей
Высота : 532 пикселя
Соотношение сторон : 2,40:1
Режим частоты кадров : Постоянный
Частота кадров : 23,976 кадра/сек
Цветовое пространство : YUV
Субдискретизация насыщенности : 4:2:0
Битовая глубина : 8 бит
Тип развёртки : Прогрессивная
Бит/(Пиксели*Кадры) : 0.245
Размер потока : 4,04 Гбайт (49%)
Заголовок : Рейд 2 / The Raid 2: Berandal [US] (2014) BDRip 720p by HQCLUB [Elheym]
Библиотека кодирования : x264 core 146 r2538kMod 121396c
Настройки программы : cabac=1 / ref=11 / deblock=1:-1:-1 / analyse=0x3:0x113 / me=umh / subme=11 / psy=1 / fade_compensate=0.00 / psy_rd=1.00:0.05 / mixed_ref=1 / me_range=32 / chroma_me=1 / trellis=2 / 8x8dct=1 / cqm=0 / deadzone=21,11 / fast_pskip=0 / chroma_qp_offset=-3 / threads=6 / lookahead_threads=2 / sliced_threads=0 / nr=0 / decimate=0 / interlaced=0 / bluray_compat=0 / constrained_intra=0 / fgo=0 / bframes=12 / b_pyramid=2 / b_adapt=2 / b_bias=0 / direct=3 / weightb=1 / open_gop=0 / weightp=2 / keyint=230 / keyint_min=23 / scenecut=40 / intra_refresh=0 / rc_lookahead=60 / rc=2pass / mbtree=0 / bitrate=4000 / ratetol=1.0 / qcomp=0.80 / qpmin=0 / qpmax=69 / qpstep=4 / cplxblur=20.0 / qblur=0.5 / vbv_maxrate=50000 / vbv_bufsize=62500 / nal_hrd=none / filler=0 / ip_ratio=1.40 / pb_ratio=1.30 / aq=2:0.90
Язык : Indonesian
Default : Да
Forced : Нет
Аудио #1
Идентификатор : 2
Формат : AC-3
Формат/Информация : Audio Coding 3
Расширение режима : CM (complete main)
Параметр Endianness формата : Big
Идентификатор кодека : A_AC3
Продолжительность : 2 ч. 30 м.
Вид битрейта : Постоянный
Битрейт : 640 Кбит/сек
Каналы : 6 каналов
Расположение каналов : Front: L C R, Side: L R, LFE
Частота : 48,0 КГц
Битовая глубина : 16 бит
Метод сжатия : С потерями
Размер потока : 689 Мбайт (8%)
Заголовок : АС3 5.1 @ 640 kbps - Dub, BD RUS
Язык : Russian
Default : Нет
Forced : Нет
Аудио #2
Идентификатор : 3
Формат : AC-3
Формат/Информация : Audio Coding 3
Расширение режима : CM (complete main)
Параметр Endianness формата : Big
Идентификатор кодека : A_AC3
Продолжительность : 2 ч. 30 м.
Вид битрейта : Постоянный
Битрейт : 640 Кбит/сек
Каналы : 6 каналов
Расположение каналов : Front: L C R, Side: L R, LFE
Частота : 48,0 КГц
Битовая глубина : 16 бит
Метод сжатия : С потерями
Размер потока : 689 Мбайт (8%)
Заголовок : АС3 5.1 @ 640 kbps - AVO, Serbin
Язык : Russian
Default : Нет
Forced : Нет
Аудио #3
Идентификатор : 4
Формат : AC-3
Формат/Информация : Audio Coding 3
Расширение режима : CM (complete main)
Параметр Endianness формата : Big
Идентификатор кодека : A_AC3
Продолжительность : 2 ч. 30 м.
Вид битрейта : Постоянный
Битрейт : 640 Кбит/сек
Каналы : 6 каналов
Расположение каналов : Front: L C R, Side: L R, LFE
Частота : 48,0 КГц
Битовая глубина : 16 бит
Метод сжатия : С потерями
Размер потока : 689 Мбайт (8%)
Заголовок : АС3 5.1 @ 640 kbps - VO, Matveev [Uncensored]
Язык : Russian
Default : Нет
Forced : Нет
Аудио #4
Идентификатор : 5
Формат : AC-3
Формат/Информация : Audio Coding 3
Расширение режима : CM (complete main)
Параметр Endianness формата : Big
Идентификатор кодека : A_AC3
Продолжительность : 2 ч. 30 м.
Вид битрейта : Постоянный
Битрейт : 640 Кбит/сек
Каналы : 6 каналов
Расположение каналов : Front: L C R, Side: L R, LFE
Частота : 48,0 КГц
Битовая глубина : 16 бит
Метод сжатия : С потерями
Размер потока : 689 Мбайт (8%)
Заголовок : АС3 5.1 @ 640 kbps - VO, Esarev [Uncensored]
Язык : Russian
Default : Нет
Forced : Нет
Аудио #5
Идентификатор : 6
Формат : AC-3
Формат/Информация : Audio Coding 3
Расширение режима : CM (complete main)
Параметр Endianness формата : Big
Идентификатор кодека : A_AC3
Продолжительность : 2 ч. 30 м.
Вид битрейта : Постоянный
Битрейт : 640 Кбит/сек
Каналы : 6 каналов
Расположение каналов : Front: L C R, Side: L R, LFE
Частота : 48,0 КГц
Битовая глубина : 16 бит
Метод сжатия : С потерями
Размер потока : 689 Мбайт (8%)
Заголовок : АС3 5.1 @ 640 kbps - Dub
Язык : English
Default : Нет
Forced : Нет
Аудио #6
Идентификатор : 7
Формат : AC-3
Формат/Информация : Audio Coding 3
Расширение режима : CM (complete main)
Параметр Endianness формата : Big
Идентификатор кодека : A_AC3
Продолжительность : 2 ч. 30 м.
Вид битрейта : Постоянный
Битрейт : 640 Кбит/сек
Каналы : 6 каналов
Расположение каналов : Front: L C R, Side: L R, LFE
Частота : 48,0 КГц
Битовая глубина : 16 бит
Метод сжатия : С потерями
Размер потока : 689 Мбайт (8%)
Заголовок : АС3 5.1 @ 640 kbps - Original
Язык : Indonesian
Default : Нет
Forced : Нет
Текст #1
Идентификатор : 8
Формат : UTF-8
Идентификатор кодека : S_TEXT/UTF8
Идентификатор кодека/Информация : UTF-8 Plain Text
Заголовок : Full, BD
Язык : Russian
Default : Нет
Forced : Нет
Текст #2
Идентификатор : 9
Формат : UTF-8
Идентификатор кодека : S_TEXT/UTF8
Идентификатор кодека/Информация : UTF-8 Plain Text
Заголовок : Full, Matveev [Uncensored]
Язык : Russian
Default : Нет
Forced : Нет
Текст #3
Идентификатор : 10
Формат : UTF-8
Идентификатор кодека : S_TEXT/UTF8
Идентификатор кодека/Информация : UTF-8 Plain Text
Заголовок : Full, v.1
Язык : English
Default : Нет
Forced : Нет
Текст #4
Идентификатор : 11
Формат : UTF-8
Идентификатор кодека : S_TEXT/UTF8
Идентификатор кодека/Информация : UTF-8 Plain Text
Заголовок : Full, v.2
Язык : English
Default : Нет
Forced : Нет
Текст #5
Идентификатор : 12
Формат : UTF-8
Идентификатор кодека : S_TEXT/UTF8
Идентификатор кодека/Информация : UTF-8 Plain Text
Заголовок : Full SDH
Язык : English
Default : Нет
Forced : Нет
Текст #6
Идентификатор : 13
Формат : UTF-8
Идентификатор кодека : S_TEXT/UTF8
Идентификатор кодека/Информация : UTF-8 Plain Text
Заголовок : Full SDH Colored
Язык : English
Default : Нет
Forced : Нет
Меню
00:00:00.000 : :Chapter 01
00:08:02.315 : :Chapter 02
00:14:03.217 : :Chapter 03
00:21:08.892 : :Chapter 04
00:31:45.486 : :Chapter 05
00:42:22.122 : :Chapter 06
00:50:55.177 : :Chapter 07
01:01:58.423 : :Chapter 08
01:11:49.763 : :Chapter 09
01:24:47.165 : :Chapter 10
01:36:31.994 : :Chapter 11
01:44:18.752 : :Chapter 12
01:48:31.713 : :Chapter 13
01:57:20.283 : :Chapter 14
02:05:59.093 : :Chapter 15
02:20:02.894 : :Chapter 16
x264 log
x264 [info]: frame I:1371 Avg QP:12.18 size:102025
x264 [info]: frame P:51846 Avg QP:15.40 size: 41583
x264 [info]: frame B:163239 Avg QP:17.06 size: 13588
x264 [info]: consecutive B-frames: 4.5% 4.5% 8.7% 21.4% 13.2% 24.6% 7.3% 10.2% 1.8% 0.6% 0.7% 2.1% 0.3%
x264 [info]: ref P L0: 44.8% 7.9% 18.0% 6.7% 6.2% 4.1% 4.1% 2.1% 2.2% 1.7% 1.9% 0.3% 0.0%
x264 [info]: ref B L0: 69.2% 12.7% 6.1% 3.6% 2.4% 2.2% 1.7% 1.2% 0.7% 0.3%
x264 [info]: ref B L1: 93.2% 6.8%
Скриншоты Сравнения с исходником
Источник- -Рип-
Цитата:
Перевод Юрия Сербина выполнен спонсорами ресурса e180 и участниками сервиса "Озвучивание": RAUL, sybir, xRym, zeleniy, king3, tambov68, Ex1l, hdrmv12, exact, sawa090, DanijelKatanec, lex077, BluRayHunter. Работа со звуком: Slimka.
Перевод Алексея Матвеева (Doctor Joker) выполнен спонсорами: будулайроманов. Работа со звуком: Переводман.
Перевод Дмитрия Есарева выполнен спонсорами: будулайроманов, mihey10, Skazhutin, Mr. X, dikii, Kruj0k. Работа со звуком: Skazhutin.
За подогнанный дубляж BD RUS спасибо - SAMYAZA
** - содержит нецензурную лексику!
Скачать

Скачать торрент!

Как скачивать? · Что такое торрент? · Рейтинг и ограничения

Сайт не распространяет и не хранит электронные версии произведений, а лишь предоставляет доступ к создаваемому пользователями каталогу ссылок на торрент-файлы, которые содержат только списки хеш-сумм

[Профиль] [ЛС]
Показать сообщения:    
Ответить на тему

Текущее время: Сегодня 05:05

Часовой пояс: GMT + 4



Вы не можете начинать темы
Вы не можете отвечать на сообщения
Вы не можете редактировать свои сообщения
Вы не можете удалять свои сообщения
Вы не можете голосовать в опросах
Вы не можете прикреплять файлы к сообщениям
Вы не можете скачивать файлы