Багровый пик / Crimson Peak (Гильермо дель Торо / Guillermo del Toro) [2015, США, Канада, ужасы, фэнтези, триллер, драма, мелодрама, детектив, BDRip 720p] Dub (iTunes) + Original Eng + Sub rus, eng

Ответить на тему
 
Автор Сообщение

user ®

Стаж: 7 лет 7 месяцев

Сообщений: 20008

Пост Пост: #1 от 02-Фев-2016 05:54

[Цитировать]

Багровый пик / Crimson Peak
Страна: США, Канада
Жанр: ужасы, фэнтези, триллер, драма, мелодрама, детектив
Год выпуска: 2015
Продолжительность: 01:58:36
Перевод: Профессиональный (дублированный) | iTunes
Оригинальная дорожка: английская
Cубтитры: русские, английские
Режиссер: Гильермо дель Торо / Guillermo del Toro
В ролях: Миа Васиковска, Джессика Честейн, Том Хиддлстон, Чарли Ханнэм, Джим Бивер, Берн Горман, Лесли Хоуп, Даг Джонс, Джонатан Хайд, Брюс Грэй, Эмили Куттс, Алек Стокуэлл, Бриджитт Робинсон, Джиллиан Феррье, Тамара Хоуп, Кимберли-Сью Мюррэй, София Уэллс, Джоанна Дуглас, Билл Лэйк, Джим Уотсон
Описание: Дурная слава преследует дом, что возвышается над городом. С приходом зимы он утопает в кровавых снегах. Говорят, дело в глине, проступающей на поверхность. Но ни единая душа не рискует ступить на ледяной склон… кроме нее. Она влюблена в таинственного незнакомца, живущего в древних стенах со своей сестрой. Багровый пик пробудился и уже не уснет.- -Качество видео: BDRip 720p | EPiC
Формат видео: MKV
Видео: MPEG-4 AVC Video ~7.8Mbps 1280x690 / 23,976 fps / 16:9 / High Profile 4.1
Аудио:

  • Russian: 48 kHz, AC3 Dolby Digital, 3/2 (L,C,R,l,r) + LFE ch, ~384 kbps
  • English: 48 kHz, DTS, 3/2 (L,C,R,l,r) + LFE ch, ~1509.00 kbps avg
    Формат субтитров: softsub (SRT)
    Скриншоты
Дополнительная информация о раздаче
................................... SOURCE................................................................. EPiC........................................................................Scene





Исходник
Crimson.Peak.2015.BluRay.1080p.AVC.DTS-HD.MA7.1-MTeam
MediaInfo
Уникальный идентификатор                 : 184179490576897855675521035985915848688 (0x8A8FADFA8DDEF4EDB169268C7DC1A7F0)
Полное имя                               : E:\V.temp\Crimson.Peak.2015.BluRay.1080p.AVC.DTS-HD.MA7.1-MTeam\Crimson.Peak.2015.BluRay.720p.DTS.x264.mkv
Формат                                   : Matroska
Версия формата                           : Version 4 / Version 2
Размер файла                             : 7,99 Гбайт
Продолжительность                        : 1 ч. 58 м.
Общий поток                              : 9640 Кбит/сек
Название фильма                          : Crimson.Peak.2015.BluRay.720p.DTS.x264-EPiC@HDArea
Дата кодирования                         : UTC 2016-01-29 20:07:24
Программа кодирования                    : mkvmerge v8.3.0 ('Over the Horizon') 32bit
Библиотека кодирования                   : libebml v1.3.1 + libmatroska v1.4.2
Attachements                             : cover.jpg
Видео
Идентификатор                            : 1
Формат                                   : AVC
Формат/Информация                        : Advanced Video Codec
Профиль формата                          : High@L4.1
Параметр CABAC формата                   : Да
Параметр ReFrames формата                : 9 кадров
Идентификатор кодека                     : V_MPEG4/ISO/AVC
Продолжительность                        : 1 ч. 58 м.
Битрейт                                  : 7745 Кбит/сек
Ширина                                   : 1280 пикселей
Высота                                   : 690 пикселей
Соотношение сторон                       : 1,85:1
Режим частоты кадров                     : Постоянный
Частота кадров                           : 23,976 (24000/1001) кадра/сек
Цветовое пространство                    : YUV
Субдискретизация насыщенности            : 4:2:0
Битовая глубина                          : 8 бит
Тип развёртки                            : Прогрессивная
Бит/(Пиксели*Кадры)                      : 0.366
Размер потока                            : 6,42 Гбайт (80%)
Заголовок                                : Crimson.Peak.2015.BluRay.720p.DTS.x264-EPiC@HDArea
Библиотека кодирования                   : x264 core 146 r2538 121396c
Настройки программы                      : cabac=1 / ref=9 / deblock=1:-3:-2 / analyse=0x3:0x133 / me=umh / subme=11 / psy=1 / psy_rd=1.05:1.00 / mixed_ref=1 / me_range=32 / chroma_me=1 / trellis=2 / 8x8dct=1 / cqm=0 / deadzone=21,11 / fast_pskip=0 / chroma_qp_offset=-4 / threads=6 / lookahead_threads=1 / sliced_threads=0 / nr=0 / decimate=0 / interlaced=0 / bluray_compat=0 / constrained_intra=0 / bframes=9 / b_pyramid=2 / b_adapt=2 / b_bias=0 / direct=3 / weightb=1 / open_gop=0 / weightp=2 / keyint=240 / keyint_min=23 / scenecut=40 / intra_refresh=0 / rc_lookahead=60 / rc=crf / mbtree=0 / crf=17.8 / qcomp=0.60 / qpmin=0 / qpmax=69 / qpstep=4 / vbv_maxrate=40000 / vbv_bufsize=30000 / crf_max=0.0 / nal_hrd=none / filler=0 / ip_ratio=1.40 / pb_ratio=1.30 / aq=1:1.00
Язык                                     : English
Default                                  : Да
Forced                                   : Нет
Аудио #1
Идентификатор                            : 2
Формат                                   : AC-3
Формат/Информация                        : Audio Coding 3
Расширение режима                        : CM (complete main)
Параметр Endianness формата              : Big
Идентификатор кодека                     : A_AC3
Продолжительность                        : 1 ч. 58 м.
Вид битрейта                             : Постоянный
Битрейт                                  : 384 Кбит/сек
Каналы                                   : 6 каналов
Расположение каналов                     : Front: L C R, Side: L R, LFE
Частота                                  : 48,0 КГц
Частота кадров                           : 31,250 кадров/сек (1536 spf)
Метод сжатия                             : С потерями
Размер потока                            : 326 Мбайт (4%)
Заголовок                                : DD5.1@384kbps
Язык                                     : Russian
Default                                  : Нет
Forced                                   : Нет
Аудио #2
Идентификатор                            : 3
Формат                                   : DTS
Формат/Информация                        : Digital Theater Systems
Режим                                    : 16
Параметр Endianness формата              : Big
Идентификатор кодека                     : A_DTS
Продолжительность                        : 1 ч. 58 м.
Вид битрейта                             : Постоянный
Битрейт                                  : 1509 Кбит/сек
Каналы                                   : 6 каналов
Расположение каналов                     : Front: L C R, Side: L R, LFE
Частота                                  : 48,0 КГц
Частота кадров                           : 93,750 кадра/сек (512 spf)
Битовая глубина                          : 24 бит
Метод сжатия                             : С потерями
Размер потока                            : 1,25 Гбайт (16%)
Заголовок                                : DTS5.1@1509
Язык                                     : English
Default                                  : Да
Forced                                   : Нет
Текст #1
Идентификатор                            : 4
Формат                                   : UTF-8
Идентификатор кодека                     : S_TEXT/UTF8
Идентификатор кодека/Информация          : UTF-8 Plain Text
Продолжительность                        : 1 ч. 52 м.
Битрейт                                  : 78 бит/сек
Count of elements                        : 1352
Размер потока                            : 64,4 Кбайт (0%)
Язык                                     : Russian
Default                                  : Да
Forced                                   : Нет
Текст #2
Идентификатор                            : 5
Формат                                   : UTF-8
Идентификатор кодека                     : S_TEXT/UTF8
Идентификатор кодека/Информация          : UTF-8 Plain Text
Продолжительность                        : 1 ч. 50 м.
Битрейт                                  : 47 бит/сек
Count of elements                        : 1364
Размер потока                            : 38,7 Кбайт (0%)
Язык                                     : English
Default                                  : Нет
Forced                                   : Нет
Меню
00:00:00.000                             : en:00:00:00.000
00:06:02.529                             : en:00:06:02.529
00:11:01.202                             : en:00:11:01.202
00:15:29.720                             : en:00:15:29.720
00:21:13.105                             : en:00:21:13.105
00:25:52.926                             : en:00:25:52.926
00:31:14.664                             : en:00:31:14.664
00:39:26.823                             : en:00:39:26.823
00:45:40.613                             : en:00:45:40.613
00:51:57.031                             : en:00:51:57.031
00:56:11.577                             : en:00:56:11.577
01:02:05.096                             : en:01:02:05.096
01:08:19.929                             : en:01:08:19.929
01:14:24.835                             : en:01:14:24.835
01:20:19.106                             : en:01:20:19.106
01:25:54.149                             : en:01:25:54.149
01:30:38.892                             : en:01:30:38.892
01:36:09.639                             : en:01:36:09.639
01:43:21.070                             : en:01:43:21.070
01:51:24.136                             : en:01:51:24.136
Скачать

Скачать торрент!

Как скачивать? · Что такое торрент? · Рейтинг и ограничения

Сайт не распространяет и не хранит электронные версии произведений, а лишь предоставляет доступ к создаваемому пользователями каталогу ссылок на торрент-файлы, которые содержат только списки хеш-сумм

[Профиль] [ЛС]
Показать сообщения:    
Ответить на тему

Текущее время: Сегодня 07:52

Часовой пояс: GMT + 4



Вы не можете начинать темы
Вы не можете отвечать на сообщения
Вы не можете редактировать свои сообщения
Вы не можете удалять свои сообщения
Вы не можете голосовать в опросах
Вы не можете прикреплять файлы к сообщениям
Вы не можете скачивать файлы