Улицы в огне / Streets of Fire (Уолтер Хилл / Walter Hill) [1984, США, боевик, BDRip 1080p] 2x DVO (Universal Pictures, Селена Интернешнл) + 2x AVO (Михалев, Гаврилов) + VO (kyberpunk) + Ukr + Original Eng + Sub (Rus, Eng)

Ответить на тему
 
Автор Сообщение

user ®

Стаж: 7 лет 7 месяцев

Сообщений: 20008

Пост Пост: #1 от 02-Фев-2016 05:54

[Цитировать]

Улицы в огне / Streets of Fire-
-
-
Год выпуска: 1984
Страна: США
Жанр: Боевик
Продолжительность: 01:33:51-
-
-Перевод: Профессиональный (двухголосый закадровый) Universal Pictures
Перевод: Профессиональный (двухголосый закадровый) Селена Интернешнл по заказу ОРТ
Перевод: Авторский (одноголосый закадровый) Алексей Михалев
Перевод: Авторский (одноголосый закадровый) Андрей Гаврилов
Перевод: Одноголосый закадровый - kyberpunk / М. Яроцкий
Cубтитры: Русские (на тексты песен), английские
Оригинальная аудиодорожка: Английский-
-
-Режиссер: Уолтер Хилл / Walter Hill
В ролях: Майкл Паре, Дайан Лэйн, Рик Морэнис, Эми Мэдиган, Уиллем Дефо, Дебора Ван Валкенберг, Ричард Лоусон, Рик Россович, Билл Пэкстон, Ли Винг
Описание: Банда жестоких байкеров похищает прямо с концерта популярную рок-диву. Бывший кавалер певицы по имени Том Коди соглашается вернуть девушку и объявляет войну злодеям-мотоциклистам.
Бюджет - $14 500 000
Награды:
Фильм в 1985 году получил премию японского кинематографического журнала-обозрения «Kinema Junpo» как лучший фильм года на иностранном языке.
Эми Мэдиган получила в 1984 году премию кинофестиваля в Ситжесе (Испания) как лучшая актриса.-- --Тип релиза: BDRip 1080p
Контейнер: MKV
Видео: MPEG4 Video (H264) 1920x1040, 23.976fps, 16.2 Mbps
Аудио #1: Русский, Dolby AC3, 48000 Hz, 6ch, 448 kbps - Двухголосый - Universal Pictures
Аудио #2: Русский, Dolby AC3, 48000 Hz, 6ch, 448 kbps - Двухголосый - Селена Интернешнл
Аудио #3: Русский, DTS, 48000 Hz, 6ch, 1509 kbps - Одноголосый - Михалёв
Аудио #4: Русский, DTS, 48000 Hz, 6ch, 1509 kbps - Одноголосый - Гаврилов
Аудио #5: Русский, Dolby AC3, 48000 Hz, 6ch, 448 kbps - Одноголосый - Яроцкий
Аудио #6: Украинский, Dolby AC3, 48000 Hz, 2ch, 192 kbps - Двухголосый - Так Треба Продакшн
Аудио #7: Английский, DTS, 48000 Hz, 6ch, 1509 kbps
Формат субтитров: softsub (SRT)
--Сэмпл
Саундтрек к фильму:
Трэклист:
1. Fire Inc. - "Nowhere Fast" 6:02
2. Marilyn Martin - "Sorcerer" 5:06
3. The Fixx - "Deeper and Deeper" 3:45
4. Greg Phillinganes - "Countdown to Love" 3:00
5. The Blasters - "One Bad Stud" 2:28
6. Fire Inc. - "Tonight Is What It Means To Be Young" 6:58
7. Maria McKee - "Never Be You" 4:06
8. Dan Hartman - "I Can Dream About You" 4:07
9. Ry Cooder - "Hold That Snake" 2:36
10. The Blasters - Blue Shadows 3:17

[url=http://***/forum/viewtopic.php?t=1523066]Скачать на рутрекере[/url]
MediaInfo:
General
Unique ID : 240457517330668823304733003155757534644 (0xB4E66EEC9E62E7C4B4FBEB72754B0DB4)
Complete name : E:\DVDRip\1984.Streets.of.Fire.renta23.mkv
Format : Matroska
Format version : Version 4 / Version 2
File size : 14.6 GiB
Duration : 1h 33mn
Overall bit rate : 22.3 Mbps
Movie name : 1984 Улицы в огне / renta23
Encoded date : UTC 2016-01-28 17:14:13
Writing application : mkvmerge v8.3.0 ('Over the Horizon') 64bit
Writing library : libebml v1.3.1 + libmatroska v1.4.2
Video
ID : 1
Format : AVC
Format/Info : Advanced Video Codec
Format profile : High@L4.1
Format settings, CABAC : Yes
Format settings, ReFrames : 4 frames
Codec ID : V_MPEG4/ISO/AVC
Duration : 1h 33mn
Bit rate : 16.2 Mbps
Width : 1 920 pixels
Height : 1 040 pixels
Display aspect ratio : 1.85:1
Frame rate mode : Constant
Frame rate : 23.976 (24000/1001) fps
Color space : YUV
Chroma subsampling : 4:2:0
Bit depth : 8 bits
Scan type : Progressive
Bits/(Pixel*Frame) : 0.339
Stream size : 10.6 GiB (73%)
Title : 1984 Улицы в огне
Writing library : x264 core 146 r2538 121396c
Encoding settings : cabac=1 / ref=4 / deblock=1:-3:-3 / analyse=0x3:0x133 / me=umh / subme=11 / psy=1 / psy_rd=1.00:0.15 / mixed_ref=1 / me_range=24 / chroma_me=1 / trellis=2 / 8x8dct=1 / cqm=0 / deadzone=21,11 / fast_pskip=0 / chroma_qp_offset=-3 / threads=12 / lookahead_threads=3 / sliced_threads=0 / nr=0 / decimate=1 / interlaced=0 / bluray_compat=0 / constrained_intra=0 / bframes=12 / b_pyramid=2 / b_adapt=2 / b_bias=0 / direct=3 / weightb=1 / open_gop=0 / weightp=2 / keyint=250 / keyint_min=23 / scenecut=40 / intra_refresh=0 / rc=2pass / mbtree=0 / bitrate=16230 / ratetol=1.0 / qcomp=0.60 / qpmin=0 / qpmax=69 / qpstep=4 / cplxblur=20.0 / qblur=0.5 / ip_ratio=1.40 / pb_ratio=1.30 / aq=2:1.00
Language : English
Default : Yes
Forced : No
Audio #1
ID : 2
Format : AC-3
Format/Info : Audio Coding 3
Mode extension : CM (complete main)
Format settings, Endianness : Big
Codec ID : A_AC3
Duration : 1h 33mn
Bit rate mode : Constant
Bit rate : 448 Kbps
Channel(s) : 6 channels
Channel positions : Front: L C R, Side: L R, LFE
Sampling rate : 48.0 KHz
Frame rate : 31.250 fps (1536 spf)
Compression mode : Lossy
Stream size : 301 MiB (2%)
Title : Двухголосый - Universal Pictures
Language : Russian
Default : No
Forced : No
Audio #2
ID : 3
Format : AC-3
Format/Info : Audio Coding 3
Mode extension : CM (complete main)
Format settings, Endianness : Big
Codec ID : A_AC3
Duration : 1h 33mn
Bit rate mode : Constant
Bit rate : 448 Kbps
Channel(s) : 6 channels
Channel positions : Front: L C R, Side: L R, LFE
Sampling rate : 48.0 KHz
Frame rate : 31.250 fps (1536 spf)
Compression mode : Lossy
Stream size : 301 MiB (2%)
Title : Двухголосый - ОРТ
Language : Russian
Default : No
Forced : No
Audio #3
ID : 4
Format : DTS
Format/Info : Digital Theater Systems
Mode : 16
Format settings, Endianness : Big
Codec ID : A_DTS
Duration : 1h 33mn
Bit rate mode : Constant
Bit rate : 1 509 Kbps
Channel(s) : 6 channels
Channel positions : Front: L C R, Side: L R, LFE
Sampling rate : 48.0 KHz
Frame rate : 93.750 fps (512 spf)
Bit depth : 16 bits
Compression mode : Lossy
Stream size : 1 013 MiB (7%)
Title : Одноголосый - Михалёв
Language : Russian
Default : No
Forced : No
Audio #4
ID : 5
Format : DTS
Format/Info : Digital Theater Systems
Mode : 16
Format settings, Endianness : Big
Codec ID : A_DTS
Duration : 1h 33mn
Bit rate mode : Constant
Bit rate : 1 509 Kbps
Channel(s) : 6 channels
Channel positions : Front: L C R, Side: L R, LFE
Sampling rate : 48.0 KHz
Frame rate : 93.750 fps (512 spf)
Bit depth : 16 bits
Compression mode : Lossy
Stream size : 1 013 MiB (7%)
Title : Одноголосый - Гаврилов
Language : Russian
Default : No
Forced : No
Audio #5
ID : 6
Format : AC-3
Format/Info : Audio Coding 3
Mode extension : CM (complete main)
Format settings, Endianness : Big
Codec ID : A_AC3
Duration : 1h 33mn
Bit rate mode : Constant
Bit rate : 448 Kbps
Channel(s) : 6 channels
Channel positions : Front: L C R, Side: L R, LFE
Sampling rate : 48.0 KHz
Frame rate : 31.250 fps (1536 spf)
Compression mode : Lossy
Stream size : 301 MiB (2%)
Title : Одноголосый - Яроцкий
Language : Russian
Default : No
Forced : No
Audio #6
ID : 7
Format : AC-3
Format/Info : Audio Coding 3
Mode extension : CM (complete main)
Format settings, Endianness : Big
Codec ID : A_AC3
Duration : 1h 33mn
Bit rate mode : Constant
Bit rate : 192 Kbps
Channel(s) : 2 channels
Channel positions : Front: L R
Sampling rate : 48.0 KHz
Frame rate : 31.250 fps (1536 spf)
Compression mode : Lossy
Stream size : 129 MiB (1%)
Title : (Двухголосый - Так Треба Продакшн
Language : Ukrainian
Default : No
Forced : No
Audio #7
ID : 8
Format : DTS
Format/Info : Digital Theater Systems
Mode : 16
Format settings, Endianness : Big
Codec ID : A_DTS
Duration : 1h 33mn
Bit rate mode : Constant
Bit rate : 1 509 Kbps
Channel(s) : 6 channels
Channel positions : Front: L C R, Side: L R, LFE
Sampling rate : 48.0 KHz
Frame rate : 93.750 fps (512 spf)
Bit depth : 16 bits
Compression mode : Lossy
Stream size : 1 013 MiB (7%)
Language : English
Default : No
Forced : No
Text #1
ID : 9
Format : UTF-8
Codec ID : S_TEXT/UTF8
Codec ID/Info : UTF-8 Plain Text
Duration : 1h 26mn
Bit rate : 27 bps
Count of elements : 283
Stream size : 17.5 KiB (0%)
Title : Только на тексты песен
Language : Russian
Default : Yes
Forced : No
Text #2
ID : 10
Format : UTF-8
Codec ID : S_TEXT/UTF8
Codec ID/Info : UTF-8 Plain Text
Duration : 1h 28mn
Bit rate : 61 bps
Count of elements : 978
Stream size : 39.5 KiB (0%)
Title : Full
Language : English
Default : No
Forced : No
Text #3
ID : 11
Format : UTF-8
Codec ID : S_TEXT/UTF8
Codec ID/Info : UTF-8 Plain Text
Duration : 1h 28mn
Bit rate : 65 bps
Count of elements : 1031
Stream size : 42.7 KiB (0%)
Title : SDH
Language : English
Default : No
Forced : No
Menu
00:00:00.000 : en:Chapter 01
00:08:49.153 : en:Chapter 02
00:15:55.996 : en:Chapter 03
00:20:11.960 : en:Chapter 04
00:23:26.947 : en:Chapter 05
00:28:52.021 : en:Chapter 06
00:34:55.760 : en:Chapter 07
00:42:51.777 : en:Chapter 08
00:47:16.500 : en:Chapter 09
00:53:57.275 : en:Chapter 10
00:58:23.583 : en:Chapter 11
01:03:46.531 : en:Chapter 12
01:09:25.411 : en:Chapter 13
01:13:30.364 : en:Chapter 14
01:19:54.831 : en:Chapter 15
01:28:34.309 : en:Chapter 16
01:29:34.494 : en:Chapter 17
Скриншоты:
Скачать

Скачать торрент!

Как скачивать? · Что такое торрент? · Рейтинг и ограничения

Сайт не распространяет и не хранит электронные версии произведений, а лишь предоставляет доступ к создаваемому пользователями каталогу ссылок на торрент-файлы, которые содержат только списки хеш-сумм

[Профиль] [ЛС]
Показать сообщения:    
Ответить на тему

Текущее время: Сегодня 17:26

Часовой пояс: GMT + 4



Вы не можете начинать темы
Вы не можете отвечать на сообщения
Вы не можете редактировать свои сообщения
Вы не можете удалять свои сообщения
Вы не можете голосовать в опросах
Вы не можете прикреплять файлы к сообщениям
Вы не можете скачивать файлы