Рейд 2 / The Raid 2: Berandal (Гарет Эванс / Gareth Evans) [2014 г., Индонезия, США, боевик, триллер, криминал, BDRip 1080p] Dub (BD RUS) + AVO (Сербин) + 2x VO (Doctor Joker, Есарев) + Dub (Eng) + Original Ind + Sub (Rus, Eng)

Ответить на тему
 
Автор Сообщение

user ®

Стаж: 7 лет 7 месяцев

Сообщений: 20008

Пост Пост: #1 от 02-Фев-2016 05:54

[Цитировать]

-Рейд 2 / The Raid 2: Berandal«Один против всех» Страна: Индонезия, США
Студия: Pt. Merantau Films, XYZ Films
Жанр: боевик, триллер, криминал
Год выпуска: 2014
Продолжительность: 02:30:28-Перевод 1: Профессиональный (полное дублирование) BD RUS
Перевод 2: Авторский (одноголосый, закадровый) Ю. Сербин
Перевод 3: Одноголосый (закадровый) А. Матвеев aka Doctor_Joker**
Перевод 4: Одноголосый (закадровый) Д. Есарев**
Оригинальная аудиодорожка: индонезийская
Cубтитры: русские, английские
Режиссер: Гарет Эванс / Gareth Evans
В ролях: Ико Ювайс, Арифин Путра, Яян Рухьян, Джули Эстелль, Ока Антара, Алекс Аббад, Сесеп Ариф Рахман, Дони Аламсях, Тио Пакусодево, Рой Мартен
Описание: Из трех полицейских, выбравшихся из кровавого ада первой части, в живых остается только офицер Рама. Уволившись из спецназа, он пробует начать жизнь заново, но вскоре прошлое жестко напоминает о себе — преступники убивают его брата. Чтобы отомстить, он внедряется в мощный криминальный синдикат, где быстро поднимается до самых вершин бандитской иерархии. Врагов здесь еще больше, и каждый неверный шаг может оказаться последним. Здесь нет ни близких, ни друзей, ни любви, ни тоски, ни жалости!-
Сэмпл: скачать-Релиз от -
Автор рипа: Elheym
Качество: BDRip 1080p (источник: / Blu-ray US [THE_RAID2_2014_HDCLUB] / 1080p)
Контейнер: MKV
Видео: 1920x800 (2.40:1), 23.976 fps, MPEG-4 AVC, ~8000 kbps avg, 0.217 bit/pixel
Аудио #1: Русский: DTS, 5.1, 48 kHz, ~1509 Кбит/с | Профессиональный (полное дублирование) BD RUS |
Аудио #2: Русский: DTS, 5.1, 48 kHz, ~1509 Кбит/с | Авторский (одноголосый, закадровый) Ю. Сербин |
Аудио #3: Русский: DTS, 5.1, 48 kHz, ~1509 Кбит/с | Одноголосый (закадровый) А. Матвеев aka Doctor_Joker** |
Аудио #4: Русский: DTS, 5.1, 48 kHz, ~1509 Кбит/с | Одноголосый (закадровый) Д. Есарев** |
Аудио #5: Английский: DTS, 5.1, 48 kHz, ~1509 Кбит/с | Профессиональный (полное дублирование) |
Аудио #6: Индонезийский: DTS, 5.1, 48 kHz, ~1509 Кбит/с | Оригинал |
Субтитры: русские (полные: BD, Матвеев**), английские (полные х2, полные SDH, полные SDH цветные)
Главы: присутствуют, сохранены оригинальные
MediaInfo
Уникальный идентификатор : 171275214950807011202144184985599503201 (0x80DA6811BA7006FD9E95B1189D626B61)
Полное имя : The.Raid.2.Berandal.2014.1080p.BluRay.4xRus.Eng.Ind.-HQCLUB.mkv
Формат : Matroska
Версия формата : Version 2
Размер файла : 17,9 Гбайт
Продолжительность : 2 ч. 30 м.
Общий поток : 17,1 Мбит/сек
Название фильма : Рейд 2 / The Raid 2: Berandal [US] (2014) BDRip 1080p by HQCLUB [Elheym]
Дата кодирования : UTC 2015-05-06 16:45:28
Программа кодирования : mkvmerge v5.2.0 ('I can't explain') built on Dec 18 2011 18:12:03
Библиотека кодирования : libebml v1.2.3 + libmatroska v1.3.0
Attachements : Cover.png
Видео
Идентификатор : 1
Формат : AVC
Формат/Информация : Advanced Video Codec
Профиль формата : High@L4.1
Параметр CABAC формата : Да
Параметр ReFrames формата : 4 кадра
Идентификатор кодека : V_MPEG4/ISO/AVC
Продолжительность : 2 ч. 30 м.
Битрейт : 8000 Кбит/сек
Ширина : 1920 пикселей
Высота : 800 пикселей
Соотношение сторон : 2,40:1
Режим частоты кадров : Постоянный
Частота кадров : 23,976 кадра/сек
Цветовое пространство : YUV
Субдискретизация насыщенности : 4:2:0
Битовая глубина : 8 бит
Тип развёртки : Прогрессивная
Бит/(Пиксели*Кадры) : 0.217
Размер потока : 8,06 Гбайт (45%)
Заголовок : Рейд 2 / The Raid 2: Berandal [US] (2014) BDRip 1080p by HQCLUB [Elheym]
Библиотека кодирования : x264 core 146 r2538kMod 121396c
Настройки программы : cabac=1 / ref=4 / deblock=1:-1:-1 / analyse=0x3:0x113 / me=umh / subme=11 / psy=1 / fade_compensate=0.00 / psy_rd=1.00:0.05 / mixed_ref=1 / me_range=32 / chroma_me=1 / trellis=2 / 8x8dct=1 / cqm=0 / deadzone=21,11 / fast_pskip=0 / chroma_qp_offset=-3 / threads=6 / lookahead_threads=2 / sliced_threads=0 / nr=0 / decimate=0 / interlaced=0 / bluray_compat=0 / constrained_intra=0 / fgo=0 / bframes=11 / b_pyramid=2 / b_adapt=2 / b_bias=0 / direct=3 / weightb=1 / open_gop=0 / weightp=2 / keyint=230 / keyint_min=23 / scenecut=40 / intra_refresh=0 / rc_lookahead=40 / rc=2pass / mbtree=0 / bitrate=8000 / ratetol=1.0 / qcomp=0.80 / qpmin=0 / qpmax=69 / qpstep=4 / cplxblur=20.0 / qblur=0.5 / vbv_maxrate=50000 / vbv_bufsize=62500 / nal_hrd=none / filler=0 / ip_ratio=1.40 / pb_ratio=1.30 / aq=2:0.90 / zones=211037,216455,b=0.2
Язык : Indonesian
Default : Да
Forced : Нет
Аудио #1
Идентификатор : 2
Формат : DTS
Формат/Информация : Digital Theater Systems
Режим : 16
Параметр Endianness формата : Big
Идентификатор кодека : A_DTS
Продолжительность : 2 ч. 30 м.
Вид битрейта : Постоянный
Битрейт : 1509 Кбит/сек
Каналы : 6 каналов
Расположение каналов : Front: L C R, Side: L R, LFE
Частота : 48,0 КГц
Битовая глубина : 24 бит
Метод сжатия : С потерями
Размер потока : 1,59 Гбайт (9%)
Заголовок : DTS 5.1 @ 1509 kbps - Dub, BD RUS
Язык : Russian
Default : Нет
Forced : Нет
Аудио #2
Идентификатор : 3
Формат : DTS
Формат/Информация : Digital Theater Systems
Режим : 16
Параметр Endianness формата : Big
Идентификатор кодека : A_DTS
Продолжительность : 2 ч. 30 м.
Вид битрейта : Постоянный
Битрейт : 1509 Кбит/сек
Каналы : 6 каналов
Расположение каналов : Front: L C R, Side: L R, LFE
Частота : 48,0 КГц
Битовая глубина : 24 бит
Метод сжатия : С потерями
Размер потока : 1,59 Гбайт (9%)
Заголовок : DTS 5.1 @ 1509 kbps - AVO, Serbin
Язык : Russian
Default : Нет
Forced : Нет
Аудио #3
Идентификатор : 4
Формат : DTS
Формат/Информация : Digital Theater Systems
Режим : 16
Параметр Endianness формата : Big
Идентификатор кодека : A_DTS
Продолжительность : 2 ч. 30 м.
Вид битрейта : Постоянный
Битрейт : 1509 Кбит/сек
Каналы : 6 каналов
Расположение каналов : Front: L C R, Side: L R, LFE
Частота : 48,0 КГц
Битовая глубина : 24 бит
Метод сжатия : С потерями
Размер потока : 1,59 Гбайт (9%)
Заголовок : DTS 5.1 @ 1509 kbps - VO, Matveev [Uncensored]
Язык : Russian
Default : Нет
Forced : Нет
Аудио #4
Идентификатор : 5
Формат : DTS
Формат/Информация : Digital Theater Systems
Режим : 16
Параметр Endianness формата : Big
Идентификатор кодека : A_DTS
Продолжительность : 2 ч. 30 м.
Вид битрейта : Постоянный
Битрейт : 1509 Кбит/сек
Каналы : 6 каналов
Расположение каналов : Front: L C R, Side: L R, LFE
Частота : 48,0 КГц
Битовая глубина : 24 бит
Метод сжатия : С потерями
Размер потока : 1,59 Гбайт (9%)
Заголовок : DTS 5.1 @ 1509 kbps - VO, Esarev [Uncensored]
Язык : Russian
Default : Нет
Forced : Нет
Аудио #5
Идентификатор : 6
Формат : DTS
Формат/Информация : Digital Theater Systems
Режим : 16
Параметр Endianness формата : Big
Идентификатор кодека : A_DTS
Продолжительность : 2 ч. 30 м.
Вид битрейта : Постоянный
Битрейт : 1509 Кбит/сек
Каналы : 6 каналов
Расположение каналов : Front: L C R, Side: L R, LFE
Частота : 48,0 КГц
Битовая глубина : 24 бит
Метод сжатия : С потерями
Размер потока : 1,59 Гбайт (9%)
Заголовок : DTS 5.1 @ 1509 kbps - Dub
Язык : English
Default : Нет
Forced : Нет
Аудио #6
Идентификатор : 7
Формат : DTS
Формат/Информация : Digital Theater Systems
Режим : 16
Параметр Endianness формата : Big
Идентификатор кодека : A_DTS
Продолжительность : 2 ч. 30 м.
Вид битрейта : Постоянный
Битрейт : 1509 Кбит/сек
Каналы : 6 каналов
Расположение каналов : Front: L C R, Side: L R, LFE
Частота : 48,0 КГц
Битовая глубина : 24 бит
Метод сжатия : С потерями
Размер потока : 1,59 Гбайт (9%)
Заголовок : DTS 5.1 @ 1509 kbps - Original
Язык : Indonesian
Default : Нет
Forced : Нет
Текст #1
Идентификатор : 8
Формат : UTF-8
Идентификатор кодека : S_TEXT/UTF8
Идентификатор кодека/Информация : UTF-8 Plain Text
Заголовок : Full, BD
Язык : Russian
Default : Нет
Forced : Нет
Текст #2
Идентификатор : 9
Формат : UTF-8
Идентификатор кодека : S_TEXT/UTF8
Идентификатор кодека/Информация : UTF-8 Plain Text
Заголовок : Full, Matveev [Uncensored]
Язык : Russian
Default : Нет
Forced : Нет
Текст #3
Идентификатор : 10
Формат : UTF-8
Идентификатор кодека : S_TEXT/UTF8
Идентификатор кодека/Информация : UTF-8 Plain Text
Заголовок : Full, v.1
Язык : English
Default : Нет
Forced : Нет
Текст #4
Идентификатор : 11
Формат : UTF-8
Идентификатор кодека : S_TEXT/UTF8
Идентификатор кодека/Информация : UTF-8 Plain Text
Заголовок : Full, v.2
Язык : English
Default : Нет
Forced : Нет
Текст #5
Идентификатор : 12
Формат : UTF-8
Идентификатор кодека : S_TEXT/UTF8
Идентификатор кодека/Информация : UTF-8 Plain Text
Заголовок : Full SDH
Язык : English
Default : Нет
Forced : Нет
Текст #6
Идентификатор : 13
Формат : UTF-8
Идентификатор кодека : S_TEXT/UTF8
Идентификатор кодека/Информация : UTF-8 Plain Text
Заголовок : Full SDH Colored
Язык : English
Default : Нет
Forced : Нет
Меню
00:00:00.000 : :Chapter 01
00:08:02.315 : :Chapter 02
00:14:03.217 : :Chapter 03
00:21:08.892 : :Chapter 04
00:31:45.486 : :Chapter 05
00:42:22.122 : :Chapter 06
00:50:55.177 : :Chapter 07
01:01:58.423 : :Chapter 08
01:11:49.763 : :Chapter 09
01:24:47.165 : :Chapter 10
01:36:31.994 : :Chapter 11
01:44:18.752 : :Chapter 12
01:48:31.713 : :Chapter 13
01:57:20.283 : :Chapter 14
02:05:59.093 : :Chapter 15
02:20:02.894 : :Chapter 16
x264 log
x264 [info]: frame I:1282 Avg QP:13.48 size:181079
x264 [info]: frame P:55484 Avg QP:16.59 size: 78519
x264 [info]: frame B:159690 Avg QP:18.10 size: 27799
x264 [info]: consecutive B-frames: 5.2% 5.4% 7.9% 29.0% 13.1% 18.7% 8.4% 10.2% 0.9% 0.1% 0.3% 0.8%
x264 [info]: ref P L0: 54.8% 7.1% 25.8% 10.8% 1.4% 0.0%
x264 [info]: ref B L0: 87.0% 10.6% 2.4%
x264 [info]: ref B L1: 93.8% 6.2%
Скриншоты Сравнения с исходником
Источник- -Рип-
Цитата:
Перевод Юрия Сербина выполнен спонсорами ресурса e180 и участниками сервиса "Озвучивание": RAUL, sybir, xRym, zeleniy, king3, tambov68, Ex1l, hdrmv12, exact, sawa090, DanijelKatanec, lex077, BluRayHunter. Работа со звуком: Slimka.
Перевод Алексея Матвеева (Doctor Joker) выполнен спонсорами: будулайроманов. Работа со звуком: Переводман.
Перевод Дмитрия Есарева выполнен спонсорами: будулайроманов, mihey10, Skazhutin, Mr. X, dikii, Kruj0k. Работа со звуком: Skazhutin.
За подогнанный дубляж BD RUS спасибо - SAMYAZA
** - содержит нецензурную лексику!
Скачать

Скачать торрент!

Как скачивать? · Что такое торрент? · Рейтинг и ограничения

Сайт не распространяет и не хранит электронные версии произведений, а лишь предоставляет доступ к создаваемому пользователями каталогу ссылок на торрент-файлы, которые содержат только списки хеш-сумм

[Профиль] [ЛС]
Показать сообщения:    
Ответить на тему

Текущее время: Сегодня 06:57

Часовой пояс: GMT + 4



Вы не можете начинать темы
Вы не можете отвечать на сообщения
Вы не можете редактировать свои сообщения
Вы не можете удалять свои сообщения
Вы не можете голосовать в опросах
Вы не можете прикреплять файлы к сообщениям
Вы не можете скачивать файлы