Прогулка / The Walk (Роберт Земекис / Robert Zemeckis) [2015, США, триллер, драма, приключения, биография, BDRip 720p] Dub (CEE) + Ukr + Original Eng + Sub Rus, Eng, Ukr

Ответить на тему
 
Автор Сообщение

user ®

Стаж: 8 лет 7 месяцев

Сообщений: 20007

Пост Пост: #1 от 02-Фев-2016 05:54

[Цитировать]

Прогулка / The Walk- Год выпуска: 2015
Выпущено: США
Жанр: триллер, драма, приключения, биография
Продолжительность: 02:03:11
Перевод: Профессиональный (полное дублирование)
Оригинальная звуковая дорожка: English
Субтитры: Russian (Forced, iTunes), Russian (iTunes), Ukrainian (Forced, iTunes), Ukrainian (iTunes), English (Forced, iTunes), English (iTunes)-Режиссер: Роберт Земекис / Robert Zemeckis
В ролях: Джозеф Гордон-Левитт, Бен Кингсли, Стив Валентайн, Шарлотта Ле Бон, Джеймс Бэдж Дэйл, Бен Шварц, Бенедикт Сэмюэл, Мизинга Мвинга, Дэниэл Аррош, Джейсон Делайн
О фильме: Вы боитесь высоты? А можете представить себя идущим по натянутому канату на высоте более 400м без всякой страховки? Потоки ветра обдувают вас, а внизу - город и тысячи взволнованных взглядов, устремленных вверх.
История о том, как французский канатоходец Филипп Пети отважился совершить легендарный трюк - пройти без страховки по канату, натянутому между небоскребами в Нью-Йорке.-VietHD!
Релиз:
Формат: MKV
Источник: The.Walk.2015.COMPLETE.BLURAY-CBGB
Видео: 1280x532 at 23.976 fps, x264@L4.1, ~4542 kbps avg
Аудио #1: Russian: 48 kHz, AC3, 3/2 (L,C,R,l,r) + LFE ch, ~640.00 kbps avg |Дубляж, Blu-ray CEE|
Аудио #2: Ukrainian: 48 kHz, AAC, 2/0 (L,R) ch, ~160.00 kbps avg |Дубляж, iTunes Russia|
Аудио #3: English: 48 kHz/16-bit, DTS, 3/2 (L,C,R,l,r) + LFE ch, ~1536.00 kbps avg
Семпл-Source vs VietHD vs SPARKS
-
mInfo
Формат : Matroska
Версия формата : Version 2
Размер файла : 5,98 Гбайт
Продолжительность : 2 ч. 3 м.
Общий поток : 6954 Кбит/сек
Название фильма : The Walk (2015) - Release for HDCLUB
Дата кодирования : UTC 2016-01-27 16:10:46
Программа кодирования : mkvmerge v3.4.0 ('Rapunzel') built on May 15 2010 09:38:20
Библиотека кодирования : libebml v0.8.0 + libmatroska v0.9.0
Видео
Идентификатор : 1
Формат : AVC
Формат/Информация : Advanced Video Codec
Профиль формата : High@L4.1
Параметр CABAC формата : Да
Параметр ReFrames формата : 12 кадров
Идентификатор кодека : V_MPEG4/ISO/AVC
Продолжительность : 2 ч. 3 м.
Ширина : 1280 пикселей
Высота : 532 пикселя
Соотношение сторон : 2,40:1
Режим частоты кадров : Постоянный
Частота кадров : 23,976 кадра/сек
Цветовое пространство : YUV
Субдискретизация насыщенности : 4:2:0
Битовая глубина : 8 бит
Тип развёртки : Прогрессивная
Заголовок : The Walk (2015) - Release for HDCLUB
Библиотека кодирования : x264 core 146 r2538kMod 121396c
Настройки программы : cabac=1 / ref=12 / deblock=1:-3:-3 / analyse=0x3:0x133 / me=umh / subme=10 / psy=1 / fade_compensate=0.00 / psy_rd=1.00:0.00 / mixed_ref=1 / me_range=24 / chroma_me=1 / trellis=2 / 8x8dct=1 / cqm=0 / deadzone=21,11 / fast_pskip=0 / chroma_qp_offset=-2 / threads=12 / lookahead_threads=3 / sliced_threads=0 / nr=0 / decimate=0 / interlaced=0 / bluray_compat=0 / constrained_intra=0 / fgo=0 / bframes=11 / b_pyramid=2 / b_adapt=2 / b_bias=0 / direct=3 / weightb=1 / open_gop=0 / weightp=2 / keyint=250 / keyint_min=23 / scenecut=40 / intra_refresh=0 / rc_lookahead=60 / rc=crf / mbtree=0 / crf=16.0000 / qcomp=0.65 / qpmin=0 / qpmax=69 / qpstep=4 / vbv_maxrate=62500 / vbv_bufsize=78125 / crf_max=0.0 / nal_hrd=none / filler=0 / ip_ratio=1.30 / pb_ratio=1.20 / aq=3:0.75
Язык : English
Default : Да
Forced : Нет
Коэффициенты матрицы : BT.709
colour_range : Limited
Аудио #1
Идентификатор : 2
Формат : AC-3
Формат/Информация : Audio Coding 3
Расширение режима : CM (complete main)
Параметр Endianness формата : Big
Идентификатор кодека : A_AC3
Продолжительность : 2 ч. 3 м.
Вид битрейта : Постоянный
Битрейт : 640 Кбит/сек
Каналы : 6 каналов
Расположение каналов : Front: L C R, Side: L R, LFE
Частота : 48,0 КГц
Битовая глубина : 16 бит
Метод сжатия : С потерями
Размер потока : 564 Мбайт (9%)
Заголовок : AC3 5.1 @ 640 kbps - DUB, Blu-ray CEE
Язык : Russian
Default : Да
Forced : Нет
Аудио #2
Идентификатор : 3
Формат : AAC
Формат/Информация : Advanced Audio Codec
Профиль формата : HE-AAC / LC
Идентификатор кодека : A_AAC
Продолжительность : 2 ч. 3 м.
Каналы : 2 канала
Расположение каналов : Front: L R
Частота : 96,0 КГц / 48,0 КГц
Метод сжатия : С потерями
Заголовок : AAC 2.0 @ 160 kbps - DUB, iTunes
Язык : Ukrainian
Default : Нет
Forced : Нет
Аудио #3
Идентификатор : 4
Формат : DTS
Формат/Информация : Digital Theater Systems
Режим : 16
Параметр Endianness формата : Big
Идентификатор кодека : A_DTS
Продолжительность : 2 ч. 3 м.
Вид битрейта : Постоянный
Битрейт : 1509 Кбит/сек
Каналы : 6 каналов
Расположение каналов : Front: L C R, Side: L R, LFE
Частота : 48,0 КГц
Битовая глубина : 16 бит
Метод сжатия : С потерями
Размер потока : 1,30 Гбайт (22%)
Заголовок : DTS 5.1 @ 1536 kbps
Язык : English
Default : Нет
Forced : Нет
Текст #1
Идентификатор : 5
Формат : UTF-8
Идентификатор кодека : S_TEXT/UTF8
Идентификатор кодека/Информация : UTF-8 Plain Text
Заголовок : Forced, iTunes
Язык : Russian
Default : Да
Forced : Нет
Текст #2
Идентификатор : 6
Формат : UTF-8
Идентификатор кодека : S_TEXT/UTF8
Идентификатор кодека/Информация : UTF-8 Plain Text
Заголовок : iTunes
Язык : Russian
Default : Нет
Forced : Нет
Текст #3
Идентификатор : 7
Формат : UTF-8
Идентификатор кодека : S_TEXT/UTF8
Идентификатор кодека/Информация : UTF-8 Plain Text
Заголовок : Forced, iTunes
Язык : Ukrainian
Default : Нет
Forced : Нет
Текст #4
Идентификатор : 8
Формат : UTF-8
Идентификатор кодека : S_TEXT/UTF8
Идентификатор кодека/Информация : UTF-8 Plain Text
Заголовок : iTunes
Язык : Ukrainian
Default : Нет
Forced : Нет
Текст #5
Идентификатор : 9
Формат : UTF-8
Идентификатор кодека : S_TEXT/UTF8
Идентификатор кодека/Информация : UTF-8 Plain Text
Заголовок : Forced, iTunes
Язык : English
Default : Нет
Forced : Нет
Текст #6
Идентификатор : 10
Формат : UTF-8
Идентификатор кодека : S_TEXT/UTF8
Идентификатор кодека/Информация : UTF-8 Plain Text
Заголовок : iTunes
Язык : English
Default : Нет
Forced : Нет
Меню
00:00:00.000 : en:00:00:00.000
00:05:15.774 : en:00:05:15.774
00:10:06.147 : en:00:10:06.147
00:14:51.808 : en:00:14:51.808
00:23:30.868 : en:00:23:30.868
00:32:22.149 : en:00:32:22.149
00:41:46.879 : en:00:41:46.879
00:46:32.415 : en:00:46:32.415
00:55:38.460 : en:00:55:38.460
01:04:37.373 : en:01:04:37.373
01:11:17.315 : en:01:11:17.315
01:17:40.406 : en:01:17:40.406
01:24:37.072 : en:01:24:37.072
01:33:46.746 : en:01:33:46.746
01:42:21.927 : en:01:42:21.927
01:50:29.540 : en:01:50:29.540

-
Цитата:

* Сохранены оригинальные главы как на Blu-ray.
* Исходный WEB-DL куплен в рамках сервиса "Копилка".
Скачать

Скачать торрент!

Как скачивать? · Что такое торрент? · Рейтинг и ограничения

Сайт не распространяет и не хранит электронные версии произведений, а лишь предоставляет доступ к создаваемому пользователями каталогу ссылок на торрент-файлы, которые содержат только списки хеш-сумм

[Профиль] [ЛС]
Показать сообщения:    
Ответить на тему

Текущее время: Сегодня 07:59

Часовой пояс: GMT + 4



Вы не можете начинать темы
Вы не можете отвечать на сообщения
Вы не можете редактировать свои сообщения
Вы не можете удалять свои сообщения
Вы не можете голосовать в опросах
Вы не можете прикреплять файлы к сообщениям
Вы не можете скачивать файлы