Человек-муравей / Ant-Man (Пейтон Рид / Peyton Reed) [2015, США, фантастика, боевик, комедия, приключения, BDRip 1080p] Dub + Sub Rus, Eng, Ukr + Original Eng

Ответить на тему
 
Автор Сообщение

user ®

Стаж: 7 лет 7 месяцев

Сообщений: 20008

Пост Пост: #1 от 02-Фев-2016 05:54

[Цитировать]

Человек-муравей / Ant-Man
«Рожденный ползать взлетит до небес»
Страна: США
Студия: Marvel
Жанр: Фантастика, боевик, комедия, приключения
Год выпуска: 2015
Продолжительность: 01:57:06
Перевод: Профессиональный (дублированный)
Cубтитры: Russian (Forced, iTunes), Russian (iTunes), Ukrainian (iTunes), English (iTunes)
Оригинальная аудиодорожка: английский--Режиссер: Пейтон Рид / Peyton Reed--В ролях: Пол Радд, Майкл Дуглас, Эванджелин Лилли, Кори Столл, Майкл Пенья, Бобби Каннавале, Ти-Ай, Давид Дастмалчян, Эбби Райдер Фортсон, Джуди Грир...--Описание: Вооружившись удивительной способностью уменьшаться в размере, но обладать при этом большой силой, мошенник Скотт Лэнг должен стать героем и помочь своему наставнику, доктору Хэнку Пиму, сохранить в тайне существование костюма Человека-муравья от угроз нового поколения.--Доп. информация: | IMDB | КиноПоиск | Сэмпл |--Тип релиза: [url=http://***/forum/viewtopic.php?t=5123689]BDRip[/url] 1080p
Контейнер: MKV
Видео: x264@L4.1, 1920x1038, 23,976 fps, 16.7 Mbps, 0.350 bit/pixe
Аудио 1: Russian: 48 kHz, AC3, 3/2 (L,C,R,l,r) + LFE ch, ~640.00 kbps avg |Дубляж, Blu-ray EUR|
Аудио 2: English: 48 kHz, DTS, 3/2 (L,C,R,l,r) + LFE ch, ~1536.00 kbps avg |Original|
Аудио 3: English: 48 kHz, AC3, 2/0 (L,R) ch, ~192.00 kbps avg |Commentary with Director Peyton Reed and Actor Paul Rudd|
Формат субтитров: softsub (SRT)
Скриншоты MediaInfo
General
Unique ID : 211724925341727072717031922096370805960 (0x9F48BCC434F1DA31B735FFA32DBEECC8)
Complete name : Ant-Man (2015) 1080p.mkv
Format : Matroska
Format version : Version 4 / Version 2
File size : 15.6 GiB
Duration : 1h 57mn
Overall bit rate : 19.1 Mbps
Movie name : Человек-муравей / Ant-Man (2015)
Encoded date : UTC 2016-01-31 10:50:57
Writing application : mkvmerge v8.1.0 ('Psychedelic Postcard') 64bit
Writing library : libebml v1.3.1 + libmatroska v1.4.2
Cover : Yes
Attachments : cover.png
Video
ID : 1
Format : AVC
Format/Info : Advanced Video Codec
Format profile : High@L4.1
Format settings, CABAC : Yes
Format settings, ReFrames : 4 frames
Codec ID : V_MPEG4/ISO/AVC
Duration : 1h 57mn
Bit rate : 16.7 Mbps
Width : 1 920 pixels
Height : 1 038 pixels
Display aspect ratio : 1.85:1
Frame rate mode : Constant
Frame rate : 23.976 (24000/1001) fps
Color space : YUV
Chroma subsampling : 4:2:0
Bit depth : 8 bits
Scan type : Progressive
Bits/(Pixel*Frame) : 0.350
Stream size : 13.7 GiB (88%)
Title : Ant-Man (2015)
Writing library : x264 core 148 r2638+53 bb29004 t_mod_Custom [8-bit@all X86_64]
Encoding settings : cabac=1 / ref=4 / deblock=1:-3:-3 / analyse=0x3:0x133 / me=tesa / subme=10 / psy=1 / fade_compensate=0.00 / psy_rd=1.00:0.00 / mixed_ref=1 / me_range=24 / chroma_me=1 / trellis=2 / 8x8dct=1 / cqm=0 / deadzone=21,11 / fast_pskip=0 / chroma_qp_offset=-2 / threads=12 / lookahead_threads=2 / sliced_threads=0 / nr=0 / decimate=0 / interlaced=0 / bluray_compat=0 / constrained_intra=0 / fgo=0 / bframes=8 / b_pyramid=2 / b_adapt=2 / b_bias=0 / direct=3 / weightb=1 / open_gop=0 / weightp=2 / keyint=250 / keyint_min=23 / scenecut=40 / intra_refresh=0 / rc_lookahead=60 / rc=crf / mbtree=0 / crf=17.0000 / qcomp=0.65 / qpmin=0:0:0 / qpmax=69:69:69 / qpstep=4 / vbv_maxrate=62500 / vbv_bufsize=78125 / crf_max=0.0 / nal_hrd=none / filler=0 / ip_ratio=1.30 / pb_ratio=1.20 / aq=3:0.80 / aq-sensitivity=10.00 / aq-factor=1.00:1.00:1.00 / aq2=0 / aq3=0 / zones=3108,3155,crf=14/3555,3730,crf=15/19231,19907,crf=15/144246,147087,crf=16
Language : English
Default : Yes
Forced : No
Audio #1
ID : 2
Format : AC-3
Format/Info : Audio Coding 3
Mode extension : CM (complete main)
Format settings, Endianness : Big
Codec ID : A_AC3
Duration : 1h 57mn
Bit rate mode : Constant
Bit rate : 640 Kbps
Channel(s) : 6 channels
Channel positions : Front: L C R, Side: L R, LFE
Sampling rate : 48.0 KHz
Frame rate : 31.250 fps (1536 spf)
Compression mode : Lossy
Stream size : 536 MiB (3%)
Title : Дубляж
Language : Russian
Default : Yes
Forced : No
Audio #2
ID : 3
Format : DTS
Format/Info : Digital Theater Systems
Mode : 16
Format settings, Endianness : Big
Codec ID : A_DTS
Duration : 1h 57mn
Bit rate mode : Constant
Bit rate : 1 509 Kbps
Channel(s) : 6 channels
Channel positions : Front: L C R, Side: L R, LFE
Sampling rate : 48.0 KHz
Frame rate : 93.750 fps (512 spf)
Bit depth : 24 bits
Compression mode : Lossy
Stream size : 1.23 GiB (8%)
Title : Original
Language : English
Default : No
Forced : No
Audio #3
ID : 4
Format : AC-3
Format/Info : Audio Coding 3
Mode extension : CM (complete main)
Format settings, Endianness : Big
Codec ID : A_AC3
Duration : 1h 57mn
Bit rate mode : Constant
Bit rate : 192 Kbps
Channel(s) : 2 channels
Channel positions : Front: L R
Sampling rate : 48.0 KHz
Frame rate : 31.250 fps (1536 spf)
Compression mode : Lossy
Stream size : 161 MiB (1%)
Title : Commentary with Director Peyton Reed and Actor Paul Rudd
Language : English
Default : No
Forced : No
Text #1
ID : 5
Format : UTF-8
Codec ID : S_TEXT/UTF8
Codec ID/Info : UTF-8 Plain Text
Duration : 1h 54mn
Bit rate : 0 bps
Count of elements : 4
Stream size : 157 Bytes (0%)
Title : Forced, iTunes
Language : Russian
Default : Yes
Forced : No
Text #2
ID : 6
Format : UTF-8
Codec ID : S_TEXT/UTF8
Codec ID/Info : UTF-8 Plain Text
Duration : 1h 56mn
Bit rate : 87 bps
Count of elements : 1537
Stream size : 74.8 KiB (0%)
Title : iTunes
Language : Russian
Default : No
Forced : No
Text #3
ID : 7
Format : UTF-8
Codec ID : S_TEXT/UTF8
Codec ID/Info : UTF-8 Plain Text
Duration : 1h 56mn
Bit rate : 83 bps
Count of elements : 1521
Stream size : 71.4 KiB (0%)
Title : iTunes
Language : Ukrainian
Default : No
Forced : No
Text #4
ID : 8
Format : UTF-8
Codec ID : S_TEXT/UTF8
Codec ID/Info : UTF-8 Plain Text
Duration : 1h 56mn
Bit rate : 56 bps
Count of elements : 1543
Stream size : 47.9 KiB (0%)
Title : iTunes
Language : English
Default : No
Forced : No
Menu
00:00:00.000 : en:The Pym Particle
00:02:08.837 : en:Scott Released from Prison
00:08:40.186 : en:Tales to Astonish
00:15:24.841 : en:Be the Person She Already Thinks You Are
00:19:59.740 : en:The Vault
00:27:50.210 : en:Trial by Water
00:33:07.235 : en:A Second Chance
00:38:53.957 : en:Sugar?
00:44:36.465 : en:Become the Hero
00:49:22.459 : en:Meeting the Team
00:57:44.252 : en:Revisiting the Past
01:00:48.812 : en:Hi. I'm Scott
01:06:31.529 : en:In the System
01:23:21.288 : en:Disintegration
01:34:20.530 : en:End of the Line
01:47:34.239 : en:Epilogue
Скачать

Скачать торрент!

Как скачивать? · Что такое торрент? · Рейтинг и ограничения

Сайт не распространяет и не хранит электронные версии произведений, а лишь предоставляет доступ к создаваемому пользователями каталогу ссылок на торрент-файлы, которые содержат только списки хеш-сумм

[Профиль] [ЛС]
Показать сообщения:    
Ответить на тему

Текущее время: Сегодня 04:09

Часовой пояс: GMT + 4



Вы не можете начинать темы
Вы не можете отвечать на сообщения
Вы не можете редактировать свои сообщения
Вы не можете удалять свои сообщения
Вы не можете голосовать в опросах
Вы не можете прикреплять файлы к сообщениям
Вы не можете скачивать файлы