Соль дороже злата / Соленый принц / Sol nad zlato (Мартин Голлы / Martin Hollý) [1983, Чехословакия, фэнтези, семейный, HDTVRip 720p] MVO + Original Slo + Sub Eng

Ответить на тему
 
Автор Сообщение

user ®

Стаж: 7 лет 7 месяцев

Сообщений: 20008

Пост Пост: #1 от 02-Фев-2016 05:54

[Цитировать]

Соль дороже злата / Соленый принц / Sol nad zlato__________________________________________________________________________________________
Страна: Чехословакия
Студия: Omnia Film München, Slovenská filmová tvorba Koliba (SFT)
Жанр: фэнтези, семейный
Год выпуска: 1983
Продолжительность: 01:24:45
Перевод: Профессиональный (многоголосый закадровый)
Оригинальная аудиодорожка: словацкий
Cубтитры: английские
Режиссер: Мартин Голлы / Martin Hollý
В ролях: Либуше Шафранкова, Габор Надь, Кароль Махата, Ладислав Худик, Дитлинде Турбан, Любомир Паулович, Зузана Коцурикова, Юрай Кукура, Дитер Кирхлехнер, Йозеф Кронер
Описание: Когда король спросил у своей младшей дочери, как она любит его, то услышал в ответ: «Больше, чем соль». Молодую женщину изгнали из королевства за столь неожиданный ответ. Она познакомилась с добрым духом, который превратил всю соль королевства в блестящее, но совершенно бесполезное золото...
__________________________________________________________________________________________

Релиз:
Рип от: DON (Soľ nad zlato 1983 REPACK 720p HDTV DD2.0 x264-DON)
Тип релиза: HDTVRip 720p
Контейнер: MKV
Видео: 994x720 at 25.000 fps, x264@L4.1 ~4858 kbps avg
Аудио 1: Russian: 48 kHz, AC3, 2/0 (L,R) ch, ~192.00 kbps avg |Многоголосый закадровый|
Аудио 2: Slovak: 48 kHz, AC3, 2/0 (L,R) ch, ~192.00 kbps avg
Cубтитры: English
MediaInfo
General
Unique ID : 204435048386865991643554178092802652327 (0x99CCC2154513A9C78FB445AD1A5A38A7)
Complete name : D:\Sol.nad.zlato.1982.REPACK.720p.HDTVRip.Rus.Slo.HDCLUB.mkv
Format : Matroska
Format version : Version 4 / Version 2
File size : 3.10 GiB
Duration : 1h 24mn
Overall bit rate : 5 245 Kbps
Movie name : Sol nad zlato (1982) - Release for HDCLUB
Encoded date : UTC 2016-01-31 13:20:49
Writing application : mkvmerge v8.5.1 ('Where you lead I will follow') 64bit
Writing library : libebml v1.3.3 + libmatroska v1.4.4
Video
ID : 1
Format : AVC
Format/Info : Advanced Video Codec
Format profile : High@L4.1
Format settings, CABAC : Yes
Format settings, ReFrames : 11 frames
Codec ID : V_MPEG4/ISO/AVC
Duration : 1h 24mn
Bit rate : 4 858 Kbps
Width : 994 pixels
Height : 720 pixels
Display aspect ratio : 1.381
Frame rate mode : Constant
Frame rate : 25.000 fps
Color space : YUV
Chroma subsampling : 4:2:0
Bit depth : 8 bits
Scan type : Progressive
Bits/(Pixel*Frame) : 0.272
Stream size : 2.88 GiB (93%)
Title : Sol nad zlato (1982) - Release for HDCLUB
Writing library : x264 core 148 r2665+53 6629127 t_mod_Custom [8-bit@all X86_64]
Encoding settings : cabac=1 / ref=11 / deblock=1:-3:-3 / analyse=0x3:0x133 / me=umh / subme=10 / psy=1 / fade_compensate=0.00 / psy_rd=1.05:0.00 / mixed_ref=1 / me_range=32 / chroma_me=1 / trellis=2 / 8x8dct=1 / cqm=0 / deadzone=21,11 / fast_pskip=0 / chroma_qp_offset=-2 / threads=12 / lookahead_threads=2 / sliced_threads=0 / nr=0 / decimate=0 / interlaced=0 / bluray_compat=0 / constrained_intra=0 / fgo=0 / bframes=8 / b_pyramid=2 / b_adapt=2 / b_bias=0 / direct=3 / weightb=1 / open_gop=0 / weightp=2 / keyint=250 / keyint_min=25 / scenecut=40 / intra_refresh=0 / rc_lookahead=60 / rc=crf / mbtree=0 / crf=16.0000 / qcomp=0.60 / qpmin=0:0:0 / qpmax=69:69:69 / qpstep=4 / vbv_maxrate=62500 / vbv_bufsize=78125 / crf_max=0.0 / nal_hrd=none / filler=0 / ip_ratio=1.40 / pb_ratio=1.30 / aq=3:0.80 / aq-sensitivity=10.00 / aq-factor=1.00:1.00:1.00 / aq2=0 / aq3=0
Language : Slovak
Default : Yes
Forced : No
Audio #1
ID : 2
Format : AC-3
Format/Info : Audio Coding 3
Mode extension : CM (complete main)
Format settings, Endianness : Big
Codec ID : A_AC3
Duration : 1h 24mn
Bit rate mode : Constant
Bit rate : 192 Kbps
Channel(s) : 2 channels
Channel positions : Front: L R
Sampling rate : 48.0 KHz
Frame rate : 31.250 fps (1536 spf)
Compression mode : Lossy
Stream size : 116 MiB (4%)
Title : AC3 2.0 @ 192 kbps - MVO
Language : Russian
Default : Yes
Forced : No
Audio #2
ID : 3
Format : AC-3
Format/Info : Audio Coding 3
Mode extension : CM (complete main)
Format settings, Endianness : Big
Codec ID : A_AC3
Duration : 1h 24mn
Bit rate mode : Constant
Bit rate : 192 Kbps
Channel(s) : 2 channels
Channel positions : Front: L R
Sampling rate : 48.0 KHz
Frame rate : 31.250 fps (1536 spf)
Compression mode : Lossy
Stream size : 116 MiB (4%)
Title : AC3 2.0 @ 192 kbps
Language : Slovak
Default : No
Forced : No
Text
ID : 4
Format : UTF-8
Codec ID : S_TEXT/UTF8
Codec ID/Info : UTF-8 Plain Text
Duration : 1h 23mn
Bit rate : 35 bps
Count of elements : 691
Stream size : 21.9 KiB (0%)
Language : English
Default : No
Forced : No
Скриншоты
Скачать

Скачать торрент!

Как скачивать? · Что такое торрент? · Рейтинг и ограничения

Сайт не распространяет и не хранит электронные версии произведений, а лишь предоставляет доступ к создаваемому пользователями каталогу ссылок на торрент-файлы, которые содержат только списки хеш-сумм

[Профиль] [ЛС]
Показать сообщения:    
Ответить на тему

Текущее время: Сегодня 18:38

Часовой пояс: GMT + 4



Вы не можете начинать темы
Вы не можете отвечать на сообщения
Вы не можете редактировать свои сообщения
Вы не можете удалять свои сообщения
Вы не можете голосовать в опросах
Вы не можете прикреплять файлы к сообщениям
Вы не можете скачивать файлы