Переводчик (Алексей Нужный) [2015, Криминал, драма, WEB-DLRip]

Ответить на тему
 
Автор Сообщение

user ®

Стаж: 7 лет 7 месяцев

Сообщений: 20008

Пост Пост: #1 от 02-Фев-2016 05:54

[Цитировать]

Переводчик- Год выпуска: 2015
Выпущено: Россия / Enjoy Movies
Жанр: криминал, драма
Продолжительность: 01:09:18-Режиссёр:
Алексей Нужный-В ролях:
Леонид Ярмольник, Александр Ильин мл., Мария Андреева, Дмитрий Астрахан, Семен Трескунов, Луиза-Габриэла Бровина, Клара Лаго, Михаил Шамигулов, Станислав Дужников, Елена Плаксина-Описание:
Воскресный папа отправляется в командировку вместе со своим двенадцатилетним сыном. Оказавшись свидетелем криминальной разборки, которую затеял главарь местной банды, сын попадает в больницу. Спасти жизнь мальчику может операция за границей. Но она стоит больших денег. Отец решается на отчаянный шаг — он соглашается исполнить три желания главаря банды.-Релиз групп [url=http://***/forum/viewtopic.php?t=1677970] [/url] | | КиноПоиск | Сэмпл |-Качество: WEB-DLRip [WEB-DL | 1080p]
Формат: AVI
Видео: 720x304 (2.37:1), 25 fps, XviD build 67 ~1300 kbps avg, 0.24 bit/pixel
Аудио: 48 kHz, AC3 Dolby Digital, 2/0 (L,R) ch, ~192 kbps
-Скриншоты MediaInfo
Общее
Полное имя                               : D:\Perevod4ik_2015_WEB-DLRip_by_Dalemake.avi
Формат                                   : AVI
Формат/Информация                        : Audio Video Interleave
Размер файла                             : 745 Мбайт
Продолжительность                        : 1 ч. 9 м.
Общий поток                              : 1503 Кбит/сек
Программа кодирования                    : VirtualDubMod 1.5.10.3 | www.virtualdub-fr.org || (build 2550/release)
Библиотека кодирования                   : VirtualDubMod build 2550/release
Видео
Идентификатор                            : 0
Формат                                   : MPEG-4 Visual
Профиль формата                          : Advanced Simple@L5
Параметр BVOP формата                    : 1
Параметр QPel формата                    : Нет
Параметр GMC формата                     : Без точки перехода
Параметр матрицы формата                 : Выборочная
Идентификатор кодека                     : XVID
Идентификатор кодека/Подсказка           : XviD
Продолжительность                        : 1 ч. 9 м.
Битрейт                                  : 1301 Кбит/сек
Ширина                                   : 720 пикселей
Высота                                   : 304 пикселя
Соотношение сторон                       : 2,35:1
Частота кадров                           : 25,000 кадров/сек
Цветовое пространство                    : YUV
Субдискретизация насыщенности            : 4:2:0
Битовая глубина                          : 8 бит
Тип развёртки                            : Прогрессивная
Метод сжатия                             : С потерями
Бит/(Пиксели*Кадры)                      : 0.238
Размер потока                            : 645 Мбайт (87%)
Библиотека кодирования                   : XviD 67
Аудио
Идентификатор                            : 1
Формат                                   : AC-3
Формат/Информация                        : Audio Coding 3
Расширение режима                        : CM (complete main)
Параметр Endianness формата              : Big
Идентификатор кодека                     : 2000
Продолжительность                        : 1 ч. 9 м.
Вид битрейта                             : Постоянный
Битрейт                                  : 192 Кбит/сек
Каналы                                   : 2 канала
Расположение каналов                     : Front: L R
Частота                                  : 48,0 КГц
Битовая глубина                          : 16 бит
Метод сжатия                             : С потерями
Размер потока                            : 95,2 Мбайт (13%)
Выравнивание                             : Разделение по промежуткам
Продолжительность промежутка             : 40  мс. (1,00 видеокадр)
Время предзагрузки промежутка            : 500  мс.
-
Скачать

Скачать торрент!

Как скачивать? · Что такое торрент? · Рейтинг и ограничения

Сайт не распространяет и не хранит электронные версии произведений, а лишь предоставляет доступ к создаваемому пользователями каталогу ссылок на торрент-файлы, которые содержат только списки хеш-сумм

[Профиль] [ЛС]
Показать сообщения:    
Ответить на тему

Текущее время: Сегодня 02:22

Часовой пояс: GMT + 4



Вы не можете начинать темы
Вы не можете отвечать на сообщения
Вы не можете редактировать свои сообщения
Вы не можете удалять свои сообщения
Вы не можете голосовать в опросах
Вы не можете прикреплять файлы к сообщениям
Вы не можете скачивать файлы