А зори здесь тихие... (Ренат Давлетьяров) [2015, Драма, военный, история, WEB-DLRip]

Ответить на тему
 
Автор Сообщение

user ®

Стаж: 7 лет 7 месяцев

Сообщений: 20008

Пост Пост: #1 от 01-Фев-2016 11:00

[Цитировать]

А зори здесь тихие...- Год выпуска: 2015
Выпущено: Россия / Интерфест, Реал-Дакота, Star Media
Жанр: драма, военный, история
Продолжительность: 01:50:59-Режиссёр:
Ренат Давлетьяров-В ролях:
Пётр Фёдоров, Евгения Малахова, Агния Кузнецова, Анастасия Микульчина, Софья Лебедева, Кристина Асмус, Екатерина Вилкова, Анатолий Белый, Дарья Мороз, Виктор Проскурин, Максим Дрозд, Наталья Батрак, Илья Алексеев, Валерий Гришко, Евгения Ульянова, Сергей Видинеев, Юлия Силаева, Елена Медведева, Илья Ермолов, Василиса Кучеренко, Алеся Гузько, Юлия Полынская, Надежда Азоркина, Евгений Костин, Артур Еникеев-Описание:
Май 1942 года. В самый разгар Великой Отечественной войны вдалеке от линии фронта, у забытого богом разъезда, фашисты выбрасывают десант с целью пробраться на Кировскую железную дорогу и Беломорско-Балтийский канал. Это не обычные солдаты-пехотинцы, это опытные, тренированные диверсанты, элита войск СС, «сверхлюди». А против них — старшина Васков и пять девчонок-зенитчиц. Казалось бы, бой местного значения, но на кону — стратегически важная транспортная артерия, соединяющая значимые центры страны. Смогут ли старшина и его хрупкие новобранцы предотвратить нацистскую диверсию, и какой ценой?-Релиз групп [url=http://***/forum/viewtopic.php?t=1677970] [/url] | | КиноПоиск | Сэмпл |-Качество: WEB-DLRip [WEB-DL | 1080p]
Формат: AVI
Видео: 720x304 (2.37:1), 25 fps, XviD build 67 ~1487 kbps avg, 0.27 bit/pixel
Аудио: 48 kHz, AC3 Dolby Digital, 3/2 (L,C,R,l,r) + LFE ch, ~384.00 kbps avg
-Скриншоты MediaInfo
Общее
Полное имя                               : C:\A_zori_zdes`_tihie_2015_WEB-DLRip_by_Dalemake.avi
Формат                                   : AVI
Формат/Информация                        : Audio Video Interleave
Размер файла                             : 1,46 Гбайт
Продолжительность                        : 1 ч. 50 м.
Общий поток                              : 1881 Кбит/сек
Программа кодирования                    : VirtualDubMod 1.5.10.3 | www.virtualdub-fr.org || (build 2550/release)
Библиотека кодирования                   : VirtualDubMod build 2550/release
Видео
Идентификатор                            : 0
Формат                                   : MPEG-4 Visual
Профиль формата                          : Advanced Simple@L5
Параметр BVOP формата                    : 1
Параметр QPel формата                    : Нет
Параметр GMC формата                     : Без точки перехода
Параметр матрицы формата                 : Выборочная
Идентификатор кодека                     : XVID
Идентификатор кодека/Подсказка           : XviD
Продолжительность                        : 1 ч. 50 м.
Битрейт                                  : 1488 Кбит/сек
Ширина                                   : 720 пикселей
Высота                                   : 304 пикселя
Соотношение сторон                       : 2,35:1
Частота кадров                           : 25,000 кадров/сек
Цветовое пространство                    : YUV
Субдискретизация насыщенности            : 4:2:0
Битовая глубина                          : 8 бит
Тип развёртки                            : Прогрессивная
Метод сжатия                             : С потерями
Бит/(Пиксели*Кадры)                      : 0.272
Размер потока                            : 1,15 Гбайт (79%)
Библиотека кодирования                   : XviD 67
Аудио
Идентификатор                            : 1
Формат                                   : AC-3
Формат/Информация                        : Audio Coding 3
Расширение режима                        : CM (complete main)
Параметр Endianness формата              : Big
Идентификатор кодека                     : 2000
Продолжительность                        : 1 ч. 50 м.
Вид битрейта                             : Постоянный
Битрейт                                  : 384 Кбит/сек
Каналы                                   : 6 каналов
Расположение каналов                     : Front: L C R, Side: L R, LFE
Частота                                  : 48,0 КГц
Метод сжатия                             : С потерями
Размер потока                            : 305 Мбайт (20%)
Выравнивание                             : Разделение по промежуткам
Продолжительность промежутка             : 40  мс. (1,00 видеокадр)
Время предзагрузки промежутка            : 500  мс.
-
Скачать

Скачать торрент!

Как скачивать? · Что такое торрент? · Рейтинг и ограничения

Сайт не распространяет и не хранит электронные версии произведений, а лишь предоставляет доступ к создаваемому пользователями каталогу ссылок на торрент-файлы, которые содержат только списки хеш-сумм

[Профиль] [ЛС]
Показать сообщения:    
Ответить на тему

Текущее время: Сегодня 12:50

Часовой пояс: GMT + 4



Вы не можете начинать темы
Вы не можете отвечать на сообщения
Вы не можете редактировать свои сообщения
Вы не можете удалять свои сообщения
Вы не можете голосовать в опросах
Вы не можете прикреплять файлы к сообщениям
Вы не можете скачивать файлы