Идеальное Рождество Артура / Arthur\'s Perfect Christmas (Грег Бэйли / Greg Bailey) [2000, США, Канада, мультфильм, комедия, семейный, DVB] Dub

Ответить на тему
 
Автор Сообщение

user ®

Стаж: 13 лет

Сообщений: 15041

Пост Пост: #1 от 01-Фев-2016 07:57

[Цитировать]

Идеальное Рождество Артура / Arthur's Perfect Christmas-Страна: США, Канада
Жанр: мультфильм, комедия, семейный
Продолжительность: 00:52:58
Год выпуска: 2000
Перевод: Профессиональный (дублированный)
Русские субтитры: нет-Режиссёр: Грег Бэйли / Greg Bailey- | Релиз: -Описание: Артур, его друг, а также их семьи и знакомые собираются организовать лучшее Рождество в Элвуде за все время существования города, но на их пути возникают препятствия.-Семпл: http://sendfile.su/1199438-Качество: DVB
Формат: TS
Видео: 720x576 (4:3) @ 786x576, 25.000 fps, AVC, ~2318 Kbps, 0.224 bits/pixel
Аудио: Русский, 48.0 KHz, MPEG-1 Audio layer 2, 2 ch, 192 kbps
Субтитры: отсутствуют
MediaInfo
GeneralID : 1 (0x1)Complete name : Arthur's Perfect Christmas 2000 TiJi Dub.tsFormat : MPEG-TSFile size : 1 001 MiBDuration : 52mn 58sOverall bit rate mode : VariableOverall bit rate : 2 643 KbpsMaximum Overall bit rate : 35.5 Mbps
VideoID : 4113 (0x1011)Menu ID : 1 (0x1)Format : AVCFormat/Info : Advanced Video CodecFormat profile : High@L3Format settings, CABAC : YesFormat settings, ReFrames : 4 framesCodec ID : 27Duration : 52mn 58sBit rate : 2 318 KbpsWidth : 720 pixelsHeight : 576 pixelsDisplay aspect ratio : 4:3Frame rate : 25.000 fpsStandard : PALColor space : YUVChroma subsampling : 4:2:0Bit depth : 8 bitsScan type : InterlacedScan type, store method : Separated fieldsScan order : Top Field FirstBits/(Pixel*Frame) : 0.224Stream size : 878 MiB (88%)Color range : LimitedColor primaries : BT.601 PALTransfer characteristics : BT.470 System B, BT.470 System GMatrix coefficients : BT.601
AudioID : 4352 (0x1100)Menu ID : 1 (0x1)Format : MPEG AudioFormat version : Version 1Format profile : Layer 2Codec ID : 4Duration : 52mn 57sBit rate mode : ConstantBit rate : 192 KbpsChannel(s) : 2 channelsSampling rate : 48.0 KHzCompression mode : LossyStream size : 72.7 MiB (7%)Language : Russian
Скриншоты
Скачать

Скачать торрент! Идеальное Рождество Артура / Arthur\'s Perfect Christmas (Грег Бэйли / Greg Bailey) [2000, США, Канада, мультфильм, комедия, семейный, DVB] Dub

Как скачивать? · Что такое торрент? · Рейтинг и ограничения

Сайт не распространяет и не хранит электронные версии произведений, а лишь предоставляет доступ к создаваемому пользователями каталогу ссылок на торрент-файлы, которые содержат только списки хеш-сумм

[Профиль] [ЛС]
Показать сообщения:    
Ответить на тему

Текущее время: Сегодня 02:55

Часовой пояс: GMT + 4



Вы не можете начинать темы
Вы не можете отвечать на сообщения
Вы не можете редактировать свои сообщения
Вы не можете удалять свои сообщения
Вы не можете голосовать в опросах
Вы не можете прикреплять файлы к сообщениям
Вы не можете скачивать файлы