Стальные когти / Wong Fei Hung: Chi tit gai dau neung gung / Claws of Steel (Ву-Пин Юэн, Джин Вонг / Jing Wong, Woo-ping Yuen) [1993, Гонконг, Боевик, комедия, история, BDRip-AVC] DVO + Sub Rus + Original Chi

Ответить на тему
 
Автор Сообщение

user ®

Стаж: 13 лет

Сообщений: 15071

Пост Пост: #1 от 01-Фев-2016 07:57

[Цитировать]

Стальные когти / Wong Fei Hung: Chi tit gai dau neung gung / Claws of Steel
Страна: Гонконг
Жанр: Боевик, комедия, история
Год выпуска: 1993
Продолжительность: 01:50:23
Перевод: Профессиональный (двухголосый закадровый)
Cубтитры: русские
Оригинальная аудиодорожка: китайский
Режиссер: Ву-Пин Юэн, Джин Вонг / Jing Wong, Woo-ping Yuen
В ролях: Джет Ли, Мэн Чунг, Дикки Чунг, Пак-чун Чан, Ка-Ян Леунг, Гордон Лиу, Алан Чуй Чунг Сан, Тиэт Во Чу, Анита Юань, Кин-Тан Юэнь
Описание: Добившись славы и всеобщего уважения, знаменитый мастер кунг-фу Вонг ищет для своей школы новое помещение. Приняв выгодное предложение, он слишком поздно узнает, что его ученики обосновались по соседству с борделем, и это ещё не самое страшное! Оказывается, местные бандиты прямо у них под носом похищают женщин и продают их в рабство, наживаясь на чужом горе и страданиях. Не в силах мириться с варварством и жестокостью, бесстрашные знатоки боевых искусств решают наказать работорговцев. Но когда выясняется, что в торговле «живым товаром» замешаны власти и буддийские монахи, Вонг понимает, что только невероятная сила и поразительные способности помогут ему спасти несчастных женщин и отстоять честь знаменитой школы.- -Автор: Sem-te
Релиз от:
Качество видео: BDRip-AVC (Исходник: Sem-te / [url=http://***/forum/viewtopic.php?t=5160496]Blu-ray 1080p[/url])
Формат видео: MKV
Видео: AVC, 768x432 (16:9), 24 fps, 1510 kbps, 0.190 bit/pixel, High Profile 4.1
Аудио: 48 kHz, AC3 Dolby Digital, 2/0 (L,R) ch, ~192.00 kbps avg | DVO
Аудио 2: 48 kHz, AC3 Dolby Digital, 2/0 (L,R) ch, ~192.00 kbps avg | Chi
MediaInfo
Unique ID : 188973870371181403697205328523189436636 (0x8E2B0B271B2647E3905891F2F91A40DC)
Format : Matroska
Format version : Version 2
File size : 1.46 GiB
Duration : 1h 50mn
Overall bit rate : 1 896 Kbps
Encoded date : UTC 2016-01-31 02:42:21
Writing application : mkvmerge v7.8.0 ('River Man') 32bit built on Apr 3 2015 12:11:22
Writing library : libebml v1.3.1 + libmatroska v1.4.2
Video
ID : 1
Format : AVC
Format/Info : Advanced Video Codec
Format profile : High@L4.1
Format settings, CABAC : Yes
Format settings, ReFrames : 8 frames
Codec ID : V_MPEG4/ISO/AVC
Duration : 1h 50mn
Bit rate : 1 510 Kbps
Width : 768 pixels
Height : 432 pixels
Display aspect ratio : 16:9
Frame rate mode : Constant
Frame rate : 24.000 fps
Color space : YUV
Chroma subsampling : 4:2:0
Bit depth : 8 bits
Scan type : Progressive
Bits/(Pixel*Frame) : 0.190
Stream size : 1.14 GiB (78%)
Writing library : x264 core 146 r2538 121396c
Encoding settings : cabac=1 / ref=8 / deblock=1:-1:-1 / analyse=0x3:0x133 / me=umh / subme=11 / psy=1 / psy_rd=1.00:0.10 / mixed_ref=1 / me_range=32 / chroma_me=1 / trellis=2 / 8x8dct=1 / cqm=0 / deadzone=21,11 / fast_pskip=0 / chroma_qp_offset=-3 / threads=3 / lookahead_threads=1 / sliced_threads=0 / nr=0 / decimate=1 / interlaced=0 / bluray_compat=0 / constrained_intra=0 / bframes=8 / b_pyramid=2 / b_adapt=2 / b_bias=0 / direct=3 / weightb=1 / open_gop=0 / weightp=2 / keyint=250 / keyint_min=23 / scenecut=40 / intra_refresh=0 / rc_lookahead=50 / rc=2pass / mbtree=1 / bitrate=1510 / ratetol=1.0 / qcomp=0.60 / qpmin=0 / qpmax=69 / qpstep=4 / cplxblur=20.0 / qblur=0.5 / ip_ratio=1.40 / aq=1:1.00
Default : Yes
Forced : No
Audio #1
ID : 2
Format : AC-3
Format/Info : Audio Coding 3
Mode extension : CM (complete main)
Format settings, Endianness : Big
Codec ID : A_AC3
Duration : 1h 50mn
Bit rate mode : Constant
Bit rate : 192 Kbps
Channel(s) : 2 channels
Channel positions : Front: L R
Sampling rate : 48.0 KHz
Compression mode : Lossy
Stream size : 152 MiB (10%)
Language : Russian
Default : Yes
Forced : No
Audio #2
ID : 3
Format : AC-3
Format/Info : Audio Coding 3
Mode extension : CM (complete main)
Format settings, Endianness : Big
Codec ID : A_AC3
Duration : 1h 50mn
Bit rate mode : Constant
Bit rate : 192 Kbps
Channel(s) : 2 channels
Channel positions : Front: L R
Sampling rate : 48.0 KHz
Compression mode : Lossy
Stream size : 152 MiB (10%)
Language : Chinese
Default : No
Forced : No
Text
ID : 4
Format : UTF-8
Codec ID : S_TEXT/UTF8
Codec ID/Info : UTF-8 Plain Text
Language : Russian
Default : No
Forced : No
Menu
00:00:00.000 : :Chapter 01
00:07:46.375 : :Chapter 02
00:13:33.583 : :Chapter 03
00:22:18.958 : :Chapter 04
00:27:59.458 : :Chapter 05
00:36:22.708 : :Chapter 06
00:46:34.208 : :Chapter 07
00:59:16.791 : :Chapter 08
01:11:09.125 : :Chapter 09
01:19:47.750 : :Chapter 10
01:25:28.291 : :Chapter 11
01:38:19.333 : :Chapter 12
01:50:23.166 : :Chapter 13
Скриншоты
Скачать

Скачать торрент! Стальные когти / Wong Fei Hung: Chi tit gai dau neung gung / Claws of Steel (Ву-Пин Юэн, Джин Вонг / Jing Wong, Woo-ping Yuen) [1993, Гонконг, Боевик, комедия, история, BDRip-AVC] DVO + Sub Rus + Original Chi

Как скачивать? · Что такое торрент? · Рейтинг и ограничения

Сайт не распространяет и не хранит электронные версии произведений, а лишь предоставляет доступ к создаваемому пользователями каталогу ссылок на торрент-файлы, которые содержат только списки хеш-сумм

[Профиль] [ЛС]
Показать сообщения:    
Ответить на тему

Текущее время: Сегодня 12:08

Часовой пояс: GMT + 4



Вы не можете начинать темы
Вы не можете отвечать на сообщения
Вы не можете редактировать свои сообщения
Вы не можете удалять свои сообщения
Вы не можете голосовать в опросах
Вы не можете прикреплять файлы к сообщениям
Вы не можете скачивать файлы