Сердца трёх (Владимир Попков) [1992, приключения, мелодрама, SATRip] киноверсия

Ответить на тему
 
Автор Сообщение

user ®

Стаж: 7 лет 7 месяцев

Сообщений: 20008

Пост Пост: #1 от 01-Фев-2016 07:57

[Цитировать]

Сердца трёх
Жанр: Приключения, мелодрама
Год выпуска: 1992
Продолжительность: 01:44:40
Режиссёр: Владимир Попков
В ролях: Алёна Хмельницкая, Сергей Жигунов, Владимир Шевельков, Рафаэль Котанджян, Пирет Мянгел, Игорь Кваша, Дмитрий Харатьян, Лиза Доля, Альгимантас Масюлис, Гедиминас Гирдвайнис, Георгий Дворников, Михаил Светин, Владимир Сошальский, Артур Ли, Алексей Колесник, Анатолий Белый, Михаил Шевчук, Владимир Уан-Зо-Ли, Сейдулла Молдаханов, Эрменгельд Коновалов, Юрий Критенко, Вадим Вильский, Виктор Демерташ, Сергей Пономаренко, Юрий Рудченко, Лев Окрент, Давид Бабаев, Людмила Лобза, Ирина Мельник, Борис Небиеридзе, Александр Итыгилов мл., Константин Шафоренко, Мария Капнист, Александр Гаврилов
Описание: Молодой миллионер Фрэнсис Морган вместе со своим обанкротившимся дальним родственником Генри Морганом отправляется на поиски старинного клада, спрятанного их далеким предком-пиратом. Но путешествие становится еще интересней, когда к ним решает присоединиться прелестная Леонсия, к чарам которой не равнодушны оба молодых человека...
Доп. информация: Данная раздача - это не мини-сериал из 5 серий, это киновариант продолжительностью 01:44:40
Сэмпл: http://multi-up.com/1086889
Формат видео: AVI
Качество видео: SATRip (DVB)
Видео: XviD, 624х384, 25fps, 1780kbps
Аудио: MPEG Layer 3, 2ch, 48000Hz, 192kbps
MediaInfo
General
Complete name : Serdtsa.Treh.1992.O.SATRip.1400.CurHaJI.KV.avi
Format : AVI
Format/Info : Audio Video Interleave
File size : 1.45 GiB
Duration : 1h 44mn
Overall bit rate : 1 982 Kbps
Movie name : Serdtsa.Treh.1992.O.SATRip.1400.CurHaJI.KV
Writing application : VirtualDubMod 1.5.10.3 | www.virtualdub-fr.org || (build 2550/release)
Writing library : VirtualDub build 35491/release
Video
ID : 0
Format : MPEG-4 Visual
Format profile : Advanced Simple@L5
Format settings, BVOP : 1
Format settings, QPel : No
Format settings, GMC : No warppoints
Format settings, Matrix : Custom
Codec ID : XVID
Codec ID/Hint : XviD
Duration : 1h 44mn
Bit rate : 1 780 Kbps
Width : 624 pixels
Height : 384 pixels
Display aspect ratio : 1.625
Frame rate : 25.000 fps
Color space : YUV
Chroma subsampling : 4:2:0
Bit depth : 8 bits
Scan type : Progressive
Compression mode : Lossy
Bits/(Pixel*Frame) : 0.297
Stream size : 1.30 GiB (90%)
Writing library : XviD 64
Audio
ID : 1
Format : MPEG Audio
Format version : Version 1
Format profile : Layer 3
Codec ID : 55
Codec ID/Hint : MP3
Duration : 1h 44mn
Bit rate mode : Constant
Bit rate : 192 Kbps
Channel(s) : 2 channels
Sampling rate : 48.0 KHz
Compression mode : Lossy
Stream size : 144 MiB (10%)
Alignment : Aligned on interleaves
Interleave, duration : 40 ms (1.00 video frame)
Interleave, preload duration : 504 ms
Writing library : L3.99r
Encoding settings : -m s -V 4 -q 2 -lowpass 18.6 -b 192
Скриншоты
Скачать

Скачать торрент!

Как скачивать? · Что такое торрент? · Рейтинг и ограничения

Сайт не распространяет и не хранит электронные версии произведений, а лишь предоставляет доступ к создаваемому пользователями каталогу ссылок на торрент-файлы, которые содержат только списки хеш-сумм

[Профиль] [ЛС]
Показать сообщения:    
Ответить на тему

Текущее время: Сегодня 06:09

Часовой пояс: GMT + 4



Вы не можете начинать темы
Вы не можете отвечать на сообщения
Вы не можете редактировать свои сообщения
Вы не можете удалять свои сообщения
Вы не можете голосовать в опросах
Вы не можете прикреплять файлы к сообщениям
Вы не можете скачивать файлы