Срочно выйду замуж (Сергей Чекалов) [2015, Россия, комедия, мелодрама, WEB-DL 1080p] + Original Rus

Ответить на тему
 
Автор Сообщение

user ®

Стаж: 7 лет 7 месяцев

Сообщений: 20008

Пост Пост: #1 от 31-Янв-2016 19:24

[Цитировать]

Срочно выйду замуж
Страна: Россия
Жанр: комедия, мелодрама
Год выпуска: 2015
Продолжительность: 01:43:33-Перевод: Не требуется
Cубтитры: нет
Оригинальная аудиодорожка: русский-Режиссер: Сергей Чекалов-В ролях: Юлия Ковальчук, Алексей Чумаков, Екатерина Маликова, Сергей Бурунов, Ольга Прокофьева, Вячеслав Гришечкин, Нонна Гришаева, Анатолий Белый, Алика Смехова, Эвклид Кюрдзидис
Описание: Женя - редактор-трудоголик, Стас - светский фотограф. Она амбициозна, а у него по жизни - ни задачи, ни проблемы. Женя хочет и может стать главным редактором журнала, но для этого у нее срочно должен появиться супруг! Условие акционеров издания - семейная аудитория нуждается в семейном руководителе. И на решение этой задачи у девушки есть всего неделя. Стас берется помочь девушке, в картотеке у модного фотографа есть немало холостяков, которые вполне могли бы подойти на роль мужа. Но неожиданно Женя понимает, что совсем не расчетлива, а Стас с удивлением обнаруживает, что влюблен.-Релиз от:
-Тип релиза: WEB-DL 1080p
Контейнер: MKV-Видео: MPEG4 Video (H264) 1912x800p, ~ 4512 kbps, 25 fps, 0.118 Bits/(Pixel*Frame)-Аудио: 48 kHz, AC3, 3/2 (L,C,R,l,r) + LFE ch, ~384.00 kbps avg iTunes
Сэмпл MediaInfo
General
Уникальный идентификатор : 177762573285192487627300831134034684484 (0x85BBD3879E67FEBAB4F8C2EC55CFEA44)
Полное имя : E:\ZAMUZH_WEB_DL.mkv
Формат : Matroska
Версия формата : Version 4 / Version 2
Размер файла : 3.61 GiB
Продолжительность : 1h 43mn
Общий поток : 4 995 Kbps
Название фильма : ZAMUZH_WEB_DL_1080p-BLUEBIRD
Дата кодирования : UTC 2016-01-30 20:54:04
Программа кодирования : mkvmerge v7.1.0 ('Good Love') 64bit built on Jul 27 2014 13:06:55
Библиотека кодирования : libebml v1.3.0 + libmatroska v1.4.1
DURATION : 01:43:33.440000000
NUMBER_OF_FRAMES : 194170
NUMBER_OF_BYTES : 298245120
_STATISTICS_WRITING_APP : mkvmerge v7.1.0 ('Good Love') 64bit built on Jul 27 2014 13:06:55
_STATISTICS_WRITING_DATE_UTC : 2016-01-30 20:54:04
_STATISTICS_TAGS : BPS DURATION NUMBER_OF_FRAMES NUMBER_OF_BYTES
Video
Идентификатор : 1
Формат : AVC
Формат/Информация : Advanced Video Codec
Профиль формата : High@L4.0
Параметр CABAC формата : Yes
Параметр ReFrames формата : 5 frames
Идентификатор кодека : V_MPEG4/ISO/AVC
Продолжительность : 1h 43mn
Битрейт : 4 512 Kbps
Ширина : 1 912 pixels
Высота : 800 pixels
Соотношение сторон : 2.40:1
Режим частоты кадров : Constant
Частота кадров : 25.000 fps
Цветовое пространство : YUV
Субдискретизация насыщенности : 4:2:0
Битовая глубина : 8 bits
Тип развёртки : Progressive
Бит/(Пиксели*Кадры) : 0.118
Размер потока : 3.26 GiB (90%)
Заголовок : ZAMUZH_WEB_DL_1080p-BLUEBIRD
Язык : Russian
Default : Yes
Forced : No
Основные цвета : BT.709
Характеристики трансфера : BT.709
Коэффициенты матрицы : BT.709
colour_range : Limited
Audio
Идентификатор : 2
Формат : AC-3
Формат/Информация : Audio Coding 3
Расширение режима : CM (complete main)
Параметр Endianness формата : Big
Идентификатор кодека : A_AC3
Продолжительность : 1h 43mn
Вид битрейта : Constant
Битрейт : 384 Kbps
Каналы : 6 channels
Расположение каналов : Front: L C R, Side: L R, LFE
Частота : 48.0 KHz
Битовая глубина : 16 bits
Метод сжатия : Lossy
Размер потока : 284 MiB (8%)
Заголовок : [ORIGINAL] DD 5.1 @ 384 kbps -iTunes
Язык : Russian
Default : Yes
Forced : No
Menu
00:00:00.000 : en:1
00:09:00.000 : en:2
00:18:28.000 : en:3
00:28:34.000 : en:4
00:37:27.000 : en:5
00:46:09.000 : en:6
00:56:35.000 : en:7
01:05:17.000 : en:8
01:13:46.000 : en:9
01:21:27.000 : en:10
01:29:53.000 : en:11
01:38:22.000 : en:12
Скриншоты
Скачать

Скачать торрент!

Как скачивать? · Что такое торрент? · Рейтинг и ограничения

Сайт не распространяет и не хранит электронные версии произведений, а лишь предоставляет доступ к создаваемому пользователями каталогу ссылок на торрент-файлы, которые содержат только списки хеш-сумм

[Профиль] [ЛС]
Показать сообщения:    
Ответить на тему

Текущее время: Сегодня 10:03

Часовой пояс: GMT + 4



Вы не можете начинать темы
Вы не можете отвечать на сообщения
Вы не можете редактировать свои сообщения
Вы не можете удалять свои сообщения
Вы не можете голосовать в опросах
Вы не можете прикреплять файлы к сообщениям
Вы не можете скачивать файлы