Доктор Вай. Рукопись без слов / Король приключений / Mo him wong / Adventure King / Dr. Wai in the Scriptures with No Words / Mao xian wang (Сиу-Тунг Чинг / Siu-Tung Ching) [1996, Гонконг, Боевик, VHSRip] AVO (Сергей Визгунов)

Ответить на тему
 
Автор Сообщение

user ®

Стаж: 10 лет

Сообщений: 18979

Пост Пост: #1 от 31-Янв-2016 16:18

[Цитировать]

Доктор Вай. Рукопись без слов / Король приключений / Mo him wong / Adventure King / Dr. Wai in the Scriptures with No Words / Mao xian wang
Страна: Гонконг
Жанр: Боевик
Год выпуска: 1996
Продолжительность: 01:30:44
Перевод: Авторский (одноголосый закадровый) Сергей Визгунов
Cубтитры: нет
Режиссер: Сиу-Тунг Чинг / Siu-Tung Ching
В ролях: Джет Ли, Колин Чоу, Билли Чоу, Такеши Канеширо, Джонни Конг, Розамунд Кван, Кар-Йинг Лау, Чарли Енг
Описание: Писатель Чоу настолько увлечен сочинением романа, что незаметно для себя становится героем своего произведения. Волею воображения он отправляется на поиски древней волшебной рукописи, способной предсказывать будущее. Его ожидают невероятные приключения, которым позавидовал бы сам Индиана Джонс.
Доп. информация: Оцифровка VHS (личный архив) и получение VHSRip alenavova
Эксклюзив для ***. При размещении данного релиза на других сайтах ссылка на автора alenavova обязательна.

Релиз
Сэмпл: https://yadi.sk/i/O53SVn-8nyyE3
Качество видео: VHSRip
Формат видео: AVI
Видео: 704x320 (2.20:1), 25 fps, XviD build 73 ~1955 kbps avg, 0.35 bit/pixel
Аудио: 48 kHz, AC3 Dolby Digital, 2/0 (L,R) ch, ~192 kbps
MediaInfo
Доктор Вай. Рукопись без слов - Dr. Wai in the Scriptures with No Words [by alenavova].avi
Format : AVI
Format/Info : Audio Video Interleave
File size : 1.37 GiB
Duration : 1h 30mn
Overall bit rate : 2 158 Kbps
Movie name : Доктор+Вай.+Рукопись+без+слов+%28Визгунов%29
Director : by alenavova
Writing application : VirtualDubMod 1.5.10.3 | www.virtualdub-fr.org || (build 2550/release)
Copyright : Edich2
Comment : ***
Video
ID : 0
Format : MPEG-4 Visual
Format profile : Advanced Simple@L5
Format settings, BVOP : 1
Format settings, QPel : No
Format settings, GMC : No warppoints
Format settings, Matrix : Custom
Codec ID : XVID
Codec ID/Hint : XviD
Duration : 1h 30mn
Bit rate : 1 956 Kbps
Width : 704 pixels
Height : 320 pixels
Display aspect ratio : 2.2:1
Frame rate : 25.000 fps
Color space : YUV
Chroma subsampling : 4:2:0
Bit depth : 8 bits
Scan type : Progressive
Compression mode : Lossy
Bits/(Pixel*Frame) : 0.347
Stream size : 1.24 GiB (91%)
Writing library : XviD 73
Audio
ID : 1
Format : AC-3
Format/Info : Audio Coding 3
Mode extension : CM (complete main)
Format settings, Endianness : Big
Codec ID : 2000
Duration : 1h 30mn
Bit rate mode : Constant
Bit rate : 192 Kbps
Channel(s) : 2 channels
Channel positions : Front: L R
Sampling rate : 48.0 KHz
Frame rate : 31.250 fps (1536 spf)
Compression mode : Lossy
Stream size : 125 MiB (9%)
Alignment : Split accross interleaves
Interleave, duration : 40 ms (1.00 video frame)
Interleave, preload duratio : 500 ms
Скриншоты
Скачать

Скачать торрент! Доктор Вай. Рукопись без слов / Король приключений / Mo him wong / Adventure King / Dr. Wai in the Scriptures with No Words / Mao xian wang (Сиу-Тунг Чинг / Siu-Tung Ching) [1996, Гонконг, Боевик, VHSRip] AVO (Сергей Визгунов)

Как скачивать? · Что такое торрент? · Рейтинг и ограничения

Сайт не распространяет и не хранит электронные версии произведений, а лишь предоставляет доступ к создаваемому пользователями каталогу ссылок на торрент-файлы, которые содержат только списки хеш-сумм

загрузка...
[Профиль] [ЛС]
Показать сообщения:    
Ответить на тему

Текущее время: Сегодня 07:14

Часовой пояс: GMT + 4



Вы не можете начинать темы
Вы не можете отвечать на сообщения
Вы не можете редактировать свои сообщения
Вы не можете удалять свои сообщения
Вы не можете голосовать в опросах
Вы не можете прикреплять файлы к сообщениям
Вы не можете скачивать файлы