Пегги Сью вышла замуж / Peggy Sue Got Married (Френсис Форд Коппола / Francis Ford Coppola) [1986, США, фэнтези, драма, мелодрама, комедия, музыка, BDRemux 1080p] MVO (Первый канал) + DVO (Кармен Видео) + AVO (Михалев А.) + Sub Rus, Eng + Original En

Ответить на тему
 
Автор Сообщение

user ®

Стаж: 7 лет 7 месяцев

Сообщений: 20008

Пост Пост: #1 от 31-Янв-2016 10:06

[Цитировать]

Пегги Сью вышла замуж / Peggy Sue Got Married
Страна: США
Жанр: фэнтези, драма, мелодрама, комедия, музыка
Год выпуска: 1986
Продолжительность: 01:43:08
Перевод: Профессиональный (многоголосый закадровый) Первый канал
Перевод 2: Профессиональный (двухголосый закадровый) Кармен Видео
Перевод 3: Авторский (одноголосый закадровый) Михалев Алексей
Cубтитры: русские, английские
Оригинальная аудиодорожка: английский
Режиссер: Френсис Форд Коппола / Francis Ford Coppola
В ролях: Кэтлин Тёрнер, Николас Кейдж, Бэрри Миллер, Кэтрин Хикс, Джоан Аллен, Кевин Дж. О’Коннор, Джим Керри, Лиза Джейн Перски, Люсинда Дженни, Уил Шрайнер, Барбара Харрис, Дон Мюррэй
Описание: Иногда очень хочется прожить жизнь заново. Во всяком случае - кое-что подправить. У Пегги Сью всё хорошо - есть милые дети, есть работа. Вот только брак трещит по швам. Сразу после развода Пегги отправляется на бал выпускников школы, где ее с восторгом выбирают королевой.
Это дает ей шанс вернуться в конец 1950-х, когда «Бич Бойз» пели песенку «Красотка Пегги Сью», а жизнь казалась такой безоблачной. Вновь очутившись на заре прекрасной юности, Пегги встречает своих родителей, а самое главное - юного Чарли. И понимает, что все было не напрасно...
Сэмпл: http://sendfile.su/1198229
Тип релиза: BDRemux 1080p
Контейнер: MKV
Видео: 1920x1080 (16:9), 23.976 fps, AVC, 24876 kbps, 0.500 bits/pixel
Аудио: Russian / AC3 / 2.0 / 48 kHz / 192 kbps / 16 bit || MVO (Первый канал)
Аудио 2: Russian / AC3 / 2.0 / 48 kHz / 192 kbps / 16 bit || DVO (Кармен Видео)
Аудио 3: Russian / AC3 / 2.0 / 48 kHz / 192 kbps / 16 bit || AVO (Михалев)
Аудио 4: DTS-HD Master Audio English 2102 kbps 5.1 / 48 kHz / 2102 kbps / 16-bit (DTS Core: 5.1 / 48 kHz / 1509 kbps / 16-bit)
Формат субтитров: softsub (SRT)
MediaInfo
General
Unique ID : 253271028883750033977814479811515209824 (0xBE8A39D1C8ABEB0DA022917D2F5B5860)
Complete name : C:\Torrent\Peggy.Sue.Got.Married.1986.BDRemux.1080p.mkv
Format : Matroska
Format version : Version 4 / Version 2
File size : 19.9 GiB
Duration : 1h 43mn
Overall bit rate mode : Variable
Overall bit rate : 27.6 Mbps
Encoded date : UTC 2016-01-28 06:38:25
Writing application : mkvmerge v7.4.0 ('Circles') 64bit built on Dec 12 2014 12:19:56
Writing library : libebml v1.3.0 + libmatroska v1.4.1
DURATION : 01:39:52.694000000
NUMBER_OF_FRAMES : 1701
NUMBER_OF_BYTES : 52075
_STATISTICS_WRITING_APP : mkvmerge v7.4.0 ('Circles') 64bit built on Dec 12 2014 12:19:56
_STATISTICS_WRITING_DATE_UTC : 2016-01-28 06:38:25
_STATISTICS_TAGS : BPS DURATION NUMBER_OF_FRAMES NUMBER_OF_BYTES
Video
ID : 1
Format : AVC
Format/Info : Advanced Video Codec
Format profile : High@L4.1
Format settings, CABAC : Yes
Format settings, ReFrames : 2 frames
Codec ID : V_MPEG4/ISO/AVC
Duration : 1h 43mn
Bit rate mode : Variable
Width : 1 920 pixels
Height : 1 080 pixels
Display aspect ratio : 16:9
Frame rate mode : Constant
Frame rate : 23.976 fps
Color space : YUV
Chroma subsampling : 4:2:0
Bit depth : 8 bits
Scan type : Progressive
Default : Yes
Forced : No
Audio #1
ID : 2
Format : AC-3
Format/Info : Audio Coding 3
Mode extension : CM (complete main)
Format settings, Endianness : Big
Codec ID : A_AC3
Duration : 1h 43mn
Bit rate mode : Constant
Bit rate : 192 Kbps
Channel(s) : 2 channels
Channel positions : Front: L R
Sampling rate : 48.0 KHz
Bit depth : 16 bits
Compression mode : Lossy
Stream size : 142 MiB (1%)
Language : Russian
Default : Yes
Forced : No
Audio #2
ID : 3
Format : AC-3
Format/Info : Audio Coding 3
Mode extension : CM (complete main)
Format settings, Endianness : Big
Codec ID : A_AC3
Duration : 1h 43mn
Bit rate mode : Constant
Bit rate : 192 Kbps
Channel(s) : 2 channels
Channel positions : Front: L R
Sampling rate : 48.0 KHz
Bit depth : 16 bits
Compression mode : Lossy
Stream size : 142 MiB (1%)
Language : Russian
Default : No
Forced : No
Audio #3
ID : 4
Format : AC-3
Format/Info : Audio Coding 3
Mode extension : CM (complete main)
Format settings, Endianness : Big
Codec ID : A_AC3
Duration : 1h 43mn
Bit rate mode : Constant
Bit rate : 192 Kbps
Channel(s) : 2 channels
Channel positions : Front: L R
Sampling rate : 48.0 KHz
Bit depth : 16 bits
Compression mode : Lossy
Stream size : 142 MiB (1%)
Language : Russian
Default : No
Forced : No
Audio #4
ID : 5
Format : DTS
Format/Info : Digital Theater Systems
Format profile : MA / Core
Mode : 16
Format settings, Endianness : Big
Codec ID : A_DTS
Duration : 1h 43mn
Bit rate mode : Variable
Bit rate : Unknown / 1 509 Kbps
Channel(s) : 6 channels
Channel positions : Front: L C R, Side: L R, LFE
Sampling rate : 48.0 KHz
Bit depth : 16 bits
Compression mode : Lossless / Lossy
Language : English
Default : No
Forced : No
Text #1
ID : 6
Format : UTF-8
Codec ID : S_TEXT/UTF8
Codec ID/Info : UTF-8 Plain Text
Language : Russian
Default : No
Forced : No
Text #2
ID : 7
Format : UTF-8
Codec ID : S_TEXT/UTF8
Codec ID/Info : UTF-8 Plain Text
Language : English
Default : No
Forced : No
Menu
00:00:00.000 : :Chapter 1
00:03:18.823 : :Chapter 2
00:17:01.812 : :Chapter 3
00:19:48.729 : :Chapter 4
00:27:47.707 : :Chapter 5
00:31:21.170 : :Chapter 6
00:36:00.992 : :Chapter 7
00:37:44.095 : :Chapter 8
00:49:09.237 : :Chapter 9
00:54:22.175 : :Chapter 10
01:04:12.807 : :Chapter 11
01:10:09.622 : :Chapter 12
01:15:02.873 : :Chapter 13
01:24:25.769 : :Chapter 14
01:30:00.937 : :Chapter 15
01:36:43.839 : :Chapter 16
01:43:07.931 : :Chapter 17
Скриншоты
Скачать

Скачать торрент!

Как скачивать? · Что такое торрент? · Рейтинг и ограничения

Сайт не распространяет и не хранит электронные версии произведений, а лишь предоставляет доступ к создаваемому пользователями каталогу ссылок на торрент-файлы, которые содержат только списки хеш-сумм

[Профиль] [ЛС]
Показать сообщения:    
Ответить на тему

Текущее время: Сегодня 02:18

Часовой пояс: GMT + 4



Вы не можете начинать темы
Вы не можете отвечать на сообщения
Вы не можете редактировать свои сообщения
Вы не можете удалять свои сообщения
Вы не можете голосовать в опросах
Вы не можете прикреплять файлы к сообщениям
Вы не можете скачивать файлы