Легенда / Legend (Брайан Хелгеленд / Brian Helgeland) [2015, Великобритания, Франция, криминал, триллер, драма, BDRip 720p] Dub (Blu-ray RUS) + Sub Eng + Original Eng

Ответить на тему
 
Автор Сообщение

user ®

Стаж: 7 лет 7 месяцев

Сообщений: 20008

Пост Пост: #1 от 31-Янв-2016 10:06

[Цитировать]

--Легенда / Legend--«Преступление – как профессия. Взлет и падение легендарных близнецов Крэй»- Страна: Великобритания, Франция
Студия: Anton Capital Entertainment (ACE), Cross Creek Pictures, Studio Canal, Working Title Films
Жанр: криминал, триллер, драма
Год выпуска: 2015
Продолжительность: 02:11:08
Перевод: Профессиональный (дублированный) |Blu-ray RUS|
Cубтитры: английские (полные, SDH)
Оригинальная аудиодорожка: английский
Главы (чаптеры): как на Blu-ray (12 шт.)
Режиссер: Брайан Хелгеленд / Brian Helgeland
В ролях: Том Харди, Эмили Браунинг, Дэвид Тьюлис, Даффи, Кристофер Экклстон, Чазз Пальминтери, Колин Морган, Джошуа Хилл, Пол Андерсон, Тара Фитцджеральд, Николас Фэррел, Адам Фогерти
Описание: Фильм расскажет историю близнецов Реджи и Ронни Крэй, культовых фигур преступного мира Великобритании 1960-х. Братья возглавляли самую влиятельную бандитскую группировку Ист-Энда. В их послужном списке: вооруженные грабежи, рэкет, поджоги, покушения, убийства и собственный ночной клуб, куда доезжали даже голливудские знаменитости. Среди их жертв - криминальные авторитеты Джек МакВитти и Джордж Корнелл.-| Сэмпл | IMDB | КиноПоиск |

Тип релиза: BDRip 720p |EbP|
Контейнер: MKV
Видео: 1280x536 at 24.000 fps, x264@L4.1, 6461 кбит/с
Аудио: Русский (Дублированный), DTS, 6ch (L, C, R, Ls, Rs +LFE), 1536 кбит/с |Лицензия, Blu-ray RUS|
Аудио 2: Украинский (Профессиональный (многоголосый)), AC3, 6ch (L, C, R, Ls, Rs +LFE), 448 кбит/с |n/a, Гуртом|
Аудио 3: Английский (Оригинал), DTS, 6ch (L, C, R, Ls, Rs +LFE), 1536 кбит/с
Аудио 4: Английский (Оригинал), AC3, 2ch (L,R), 192 кбит/с |Commentary with Brian Helgeland|
Формат субтитров: softsub (SRT)

MediaInfo
General
Уникальный идентификатор : 226978919461214884106789038786138012417 (0xAAC28CBDF4C80FEA98F378D29FAAFB01)
Полное имя : D:\MOVIES\Legend.2015.720p.BluRay.x264.Rus.Ukr.2xEng.ac3.dts.EbP.0dayTeam.mkv
Формат : Matroska
Версия формата : Version 2
Размер файла : 9.26 GiB
Продолжительность : 2h 11mn
Общий поток : 10.1 Mbps
Название фильма : Legend.2015.720p.BluRay.x264-EbP
Дата кодирования : UTC 2016-01-28 15:38:56
Программа кодирования : mkvmerge v5.7.0 ('The Whirlwind') built on Jul 10 2012 18:39:26
Библиотека кодирования : libebml v1.2.3 + libmatroska v1.3.0
DURATION : 02:07:14.874000000
NUMBER_OF_FRAMES : 2111
NUMBER_OF_BYTES : 76436
_STATISTICS_WRITING_APP : mkvmerge v7.9.0 ('Birds') 64bit
_STATISTICS_WRITING_DATE_UTC : 2016-01-28 10:22:33
_STATISTICS_TAGS : BPS DURATION NUMBER_OF_FRAMES NUMBER_OF_BYTES
Video
Идентификатор : 1
Формат : AVC
Формат/Информация : Advanced Video Codec
Профиль формата : High@L4.1
Параметр CABAC формата : Yes
Параметр ReFrames формата : 9 frames
Идентификатор кодека : V_MPEG4/ISO/AVC
Продолжительность : 2h 11mn
Битрейт : 6 461 Kbps
Ширина : 1 280 pixels
Высота : 536 pixels
Соотношение сторон : 2.40:1
Режим частоты кадров : Constant
Частота кадров : 24.000 fps
Цветовое пространство : YUV
Субдискретизация насыщенности : 4:2:0
Битовая глубина : 8 bits
Тип развёртки : Progressive
Бит/(Пиксели*Кадры) : 0.392
Размер потока : 5.73 GiB (62%)
Заголовок : Legend.2015.720p.BluRay.x264-EbP
Библиотека кодирования : x264 core 148 r2638 7599210
Настройки программы : cabac=1 / ref=9 / deblock=1:-3:-3 / analyse=0x3:0x133 / me=umh / subme=10 / psy=1 / psy_rd=0.95:0.00 / mixed_ref=1 / me_range=32 / chroma_me=1 / trellis=2 / 8x8dct=1 / cqm=0 / deadzone=21,11 / fast_pskip=0 / chroma_qp_offset=-2 / threads=12 / lookahead_threads=2 / sliced_threads=0 / nr=0 / decimate=0 / interlaced=0 / bluray_compat=0 / constrained_intra=0 / bframes=9 / b_pyramid=2 / b_adapt=2 / b_bias=0 / direct=3 / weightb=1 / open_gop=0 / weightp=2 / keyint=240 / keyint_min=24 / scenecut=40 / intra_refresh=0 / rc_lookahead=120 / rc=2pass / mbtree=0 / bitrate=6461 / ratetol=1.0 / qcomp=0.60 / qpmin=0 / qpmax=69 / qpstep=4 / cplxblur=20.0 / qblur=0.5 / vbv_maxrate=62500 / vbv_bufsize=78125 / nal_hrd=none / filler=0 / ip_ratio=1.40 / pb_ratio=1.30 / aq=2:0.70
Язык : English
Default : Yes
Forced : No
Audio #1
Идентификатор : 2
Формат : DTS
Формат/Информация : Digital Theater Systems
Режим : 16
Параметр Endianness формата : Big
Идентификатор кодека : A_DTS
Продолжительность : 2h 11mn
Вид битрейта : Constant
Битрейт : 1 509 Kbps
Каналы : 6 channels
Расположение каналов : Front: L C R, Side: L R, LFE
Частота : 48.0 KHz
Битовая глубина : 24 bits
Метод сжатия : Lossy
Размер потока : 1.38 GiB (15%)
Заголовок : Лицензия, Blu-ray RUS
Язык : Russian
Default : Yes
Forced : No
Audio #2
Идентификатор : 3
Формат : AC-3
Формат/Информация : Audio Coding 3
Расширение режима : CM (complete main)
Параметр Endianness формата : Big
Идентификатор кодека : A_AC3
Продолжительность : 2h 11mn
Вид битрейта : Constant
Битрейт : 448 Kbps
Каналы : 6 channels
Расположение каналов : Front: L C R, Side: L R, LFE
Частота : 48.0 KHz
Метод сжатия : Lossy
Размер потока : 420 MiB (4%)
Заголовок : n/a, Гуртом
Язык : Ukrainian
Default : No
Forced : No
Audio #3
Идентификатор : 4
Формат : DTS
Формат/Информация : Digital Theater Systems
Режим : 16
Параметр Endianness формата : Big
Идентификатор кодека : A_DTS
Продолжительность : 2h 11mn
Вид битрейта : Constant
Битрейт : 1 509 Kbps
Каналы : 6 channels
Расположение каналов : Front: L C R, Side: L R, LFE
Частота : 48.0 KHz
Битовая глубина : 24 bits
Метод сжатия : Lossy
Размер потока : 1.38 GiB (15%)
Язык : English
Default : No
Forced : No
Audio #4
Идентификатор : 5
Формат : AC-3
Формат/Информация : Audio Coding 3
Расширение режима : CM (complete main)
Параметр Endianness формата : Big
Идентификатор кодека : A_AC3
Продолжительность : 2h 11mn
Вид битрейта : Constant
Битрейт : 192 Kbps
Каналы : 2 channels
Расположение каналов : Front: L R
Частота : 48.0 KHz
Метод сжатия : Lossy
Размер потока : 180 MiB (2%)
Заголовок : Commentary with Brian Helgeland
Язык : English
Default : No
Forced : No
Text #1
Идентификатор : 6
Формат : UTF-8
Идентификатор кодека : S_TEXT/UTF8
Идентификатор кодека/Информация : UTF-8 Plain Text
Язык : English
Default : No
Forced : No
Text #2
Идентификатор : 7
Формат : UTF-8
Идентификатор кодека : S_TEXT/UTF8
Идентификатор кодека/Информация : UTF-8 Plain Text
Заголовок : English-SDH
Язык : English
Default : No
Forced : No
Menu
00:00:00.000 : en:Chapter 1
00:10:25.292 : en:Chapter 2
00:21:04.917 : en:Chapter 3
00:30:57.125 : en:Chapter 4
00:43:26.292 : en:Chapter 5
00:50:36.958 : en:Chapter 6
01:02:41.333 : en:Chapter 7
01:12:30.375 : en:Chapter 8
01:23:04.042 : en:Chapter 9
01:33:02.708 : en:Chapter 10
01:43:27.292 : en:Chapter 11
01:54:15.667 : en:Chapter 12
Скриншоты Скриншоты сравнения Source vs EbP vs AMIABLE
Скачать

Скачать торрент!

Как скачивать? · Что такое торрент? · Рейтинг и ограничения

Сайт не распространяет и не хранит электронные версии произведений, а лишь предоставляет доступ к создаваемому пользователями каталогу ссылок на торрент-файлы, которые содержат только списки хеш-сумм

[Профиль] [ЛС]
Показать сообщения:    
Ответить на тему

Текущее время: Сегодня 04:16

Часовой пояс: GMT + 4



Вы не можете начинать темы
Вы не можете отвечать на сообщения
Вы не можете редактировать свои сообщения
Вы не можете удалять свои сообщения
Вы не можете голосовать в опросах
Вы не можете прикреплять файлы к сообщениям
Вы не можете скачивать файлы