Мармадюк / Marmaduke (Том Дей / Tom Dey) [2010, США, комедия, семейный, BDRip 720p] Dub (CEE) + Original Eng + Ukr (1+1) + Sub (Rus, Eng)

Ответить на тему
 
Автор Сообщение

user ®

Стаж: 7 лет 7 месяцев

Сообщений: 20008

Пост Пост: #1 от 30-Янв-2016 16:33

[Цитировать]

Мармадюк / Marmaduke- Год выпуска: 2010
Выпущено: США
Жанр: комедия, семейный
Продолжительность: 01:28:09
Перевод: Профессиональный (полное дублирование) CEE
Оригинальная звуковая дорожка: English
Субтитры: Russian, English (full, SDH, SDH Colored)-Режиссер: Том Дей / Tom Dey
В ролях: Оуэн Уилсон, George, Spirit, Эмма Стоун, Хак, Джордж Лопез, Мэй Таи, Кристофер Минц-Плассе, Долли, Стив Кугэн
О фильме: Семья переезжает в новый дом и новым соседям придется привыкнуть к тому, что датский дог по имени Мармадюк вносит постоянный хаос в их жизнь - его хозяева к этому уже давно привыкли.-CRiME!
За основу релиза взят релиз от :
Формат: MKV
Тип релиза: BDRip 720p
Видео: 1280x544 at 23.976 fps, CRF , ~10 100 kbps avg
Аудио #1: Russian: 48 kHz, DTS, 3/2 (L,C,R,l,r) + LFE ch, ~768.00 kbps avg |Дубляж, Blu-Ray CEE|
Аудио #2: Ukrainian: 48 kHz, AC3, 2/0 (L,R) ch, ~192.00 kbps avg |Многоголосый закадровый, 1+1|
Аудио #3: English: 48 kHz/24-bit, DTS, 3/2 (L,C,R,l,r) + LFE ch, ~1536.00 kbps avg
Семпл-Source vs Encode
-
mInfo
Формат : Matroska
Версия формата : Version 4 / Version 2
Размер файла : 6,71 Гбайт
Продолжительность : 1 ч. 28 м.
Общий поток : 10,9 Мбит/сек
Название фильма : Marmaduke (2010) - Release for HDCLUB
Дата кодирования : UTC 2016-01-30 06:51:02
Программа кодирования : mkvmerge v7.0.0 ('Where We Going') 32bit built on Jun 9 2014 15:08:34
Библиотека кодирования : libebml v1.3.0 + libmatroska v1.4.1
DURATION : 01:22:32.280000000
NUMBER_OF_FRAMES : 1582
NUMBER_OF_BYTES : 52093
_STATISTICS_WRITING_APP : mkvmerge v7.0.0 ('Where We Going') 32bit built on Jun 9 2014 15:08:34
_STATISTICS_WRITING_DATE_UTC : 2016-01-30 06:51:02
_STATISTICS_TAGS : BPS DURATION NUMBER_OF_FRAMES NUMBER_OF_BYTES
Видео
Идентификатор : 1
Формат : AVC
Формат/Информация : Advanced Video Codec
Профиль формата : High@L4.1
Параметр CABAC формата : Да
Параметр ReFrames формата : 12 кадров
Идентификатор кодека : V_MPEG4/ISO/AVC
Продолжительность : 1 ч. 28 м.
Битрейт : 8219 Кбит/сек
Ширина : 1280 пикселей
Высота : 544 пикселя
Соотношение сторон : 2,35:1
Режим частоты кадров : Постоянный
Частота кадров : 23,976 кадра/сек
Цветовое пространство : YUV
Субдискретизация насыщенности : 4:2:0
Битовая глубина : 8 бит
Тип развёртки : Прогрессивная
Бит/(Пиксели*Кадры) : 0.492
Размер потока : 5,06 Гбайт (75%)
Библиотека кодирования : x264 core 146 r2538 121396c
Настройки программы : cabac=1 / ref=12 / deblock=1:-3:-3 / analyse=0x3:0x133 / me=umh / subme=11 / psy=1 / psy_rd=1.03:0.05 / mixed_ref=1 / me_range=48 / chroma_me=1 / trellis=2 / 8x8dct=1 / cqm=0 / deadzone=21,11 / fast_pskip=0 / chroma_qp_offset=-5 / threads=6 / lookahead_threads=1 / sliced_threads=0 / nr=0 / decimate=1 / interlaced=0 / bluray_compat=0 / constrained_intra=0 / bframes=10 / b_pyramid=2 / b_adapt=2 / b_bias=0 / direct=3 / weightb=1 / open_gop=0 / weightp=2 / keyint=230 / keyint_min=22 / scenecut=40 / intra_refresh=0 / rc_lookahead=60 / rc=crf / mbtree=0 / crf=18.3 / qcomp=0.63 / qpmin=0 / qpmax=69 / qpstep=4 / vbv_maxrate=62500 / vbv_bufsize=78125 / crf_max=0.0 / nal_hrd=none / filler=0 / ip_ratio=1.30 / pb_ratio=1.20 / aq=1:0.68
Язык : English
Default : Да
Forced : Нет
Аудио #1
Идентификатор : 2
Формат : DTS
Формат/Информация : Digital Theater Systems
Режим : 16
Параметр Endianness формата : Big
Идентификатор кодека : A_DTS
Продолжительность : 1 ч. 28 м.
Вид битрейта : Постоянный
Битрейт : 755 Кбит/сек
Каналы : 6 каналов
Расположение каналов : Front: L C R, Side: L R, LFE
Частота : 48,0 КГц
Битовая глубина : 24 бит
Метод сжатия : С потерями
Размер потока : 476 Мбайт (7%)
Заголовок : |Дубляж, Blu-Ray CEE|
Язык : Russian
Default : Да
Forced : Нет
Аудио #2
Идентификатор : 3
Формат : AC-3
Формат/Информация : Audio Coding 3
Расширение режима : CM (complete main)
Параметр Endianness формата : Big
Идентификатор кодека : A_AC3
Продолжительность : 1 ч. 28 м.
Вид битрейта : Постоянный
Битрейт : 192 Кбит/сек
Каналы : 2 канала
Расположение каналов : Front: L R
Частота : 48,0 КГц
Битовая глубина : 16 бит
Метод сжатия : С потерями
Размер потока : 121 Мбайт (2%)
Заголовок : |Многоголосый закадровый, 1+1|
Язык : Ukrainian
Default : Нет
Forced : Нет
Аудио #3
Идентификатор : 4
Формат : DTS
Формат/Информация : Digital Theater Systems
Режим : 16
Параметр Endianness формата : Big
Идентификатор кодека : A_DTS
Продолжительность : 1 ч. 28 м.
Вид битрейта : Постоянный
Битрейт : 1509 Кбит/сек
Каналы : 6 каналов
Расположение каналов : Front: L C R, Side: L R, LFE
Частота : 48,0 КГц
Битовая глубина : 24 бит
Метод сжатия : С потерями
Размер потока : 952 Мбайт (14%)
Язык : English
Default : Нет
Forced : Нет
Текст #1
Идентификатор : 5
Формат : UTF-8
Идентификатор кодека : S_TEXT/UTF8
Идентификатор кодека/Информация : UTF-8 Plain Text
Язык : Russian
Default : Нет
Forced : Нет
Текст #2
Идентификатор : 6
Формат : UTF-8
Идентификатор кодека : S_TEXT/UTF8
Идентификатор кодека/Информация : UTF-8 Plain Text
Язык : English
Default : Нет
Forced : Нет
Текст #3
Идентификатор : 7
Формат : UTF-8
Идентификатор кодека : S_TEXT/UTF8
Идентификатор кодека/Информация : UTF-8 Plain Text
Заголовок : SDH
Язык : English
Default : Нет
Forced : Нет
Текст #4
Идентификатор : 8
Формат : UTF-8
Идентификатор кодека : S_TEXT/UTF8
Идентификатор кодека/Информация : UTF-8 Plain Text
Заголовок : SDH Colored
Язык : English
Default : Нет
Forced : Нет
Меню
00:00:00.000 : en:00:00:00.000
00:06:57.500 : en:00:06:57.500
00:10:02.811 : en:00:10:02.811
00:11:30.023 : en:00:11:30.023
00:14:34.499 : en:00:14:34.499
00:18:22.476 : en:00:18:22.476
00:19:34.840 : en:00:19:34.840
00:21:45.221 : en:00:21:45.221
00:24:40.646 : en:00:24:40.646
00:29:19.841 : en:00:29:19.841
00:31:30.097 : en:00:31:30.097
00:33:44.022 : en:00:33:44.022
00:37:25.535 : en:00:37:25.535
00:42:20.037 : en:00:42:20.037
00:43:51.128 : en:00:43:51.128
00:45:45.201 : en:00:45:45.201
00:49:25.629 : en:00:49:25.629
00:52:28.270 : en:00:52:28.270
00:55:22.694 : en:00:55:22.694
00:59:18.013 : en:00:59:18.013
01:01:34.274 : en:01:01:34.274
01:04:30.867 : en:01:04:30.867
01:06:39.204 : en:01:06:39.204
01:08:27.770 : en:01:08:27.770
01:11:19.775 : en:01:11:19.775
01:14:08.402 : en:01:14:08.402
01:17:05.204 : en:01:17:05.204
01:21:23.837 : en:01:21:23.837

-
Цитата:

* За коррекцию Eng SDH субтитров, а также за Eng и Eng SDH Colored субтитры большое спасибо Elheym.
Скачать

Скачать торрент!

Как скачивать? · Что такое торрент? · Рейтинг и ограничения

Сайт не распространяет и не хранит электронные версии произведений, а лишь предоставляет доступ к создаваемому пользователями каталогу ссылок на торрент-файлы, которые содержат только списки хеш-сумм

[Профиль] [ЛС]
Показать сообщения:    
Ответить на тему

Текущее время: Сегодня 04:47

Часовой пояс: GMT + 4



Вы не можете начинать темы
Вы не можете отвечать на сообщения
Вы не можете редактировать свои сообщения
Вы не можете удалять свои сообщения
Вы не можете голосовать в опросах
Вы не можете прикреплять файлы к сообщениям
Вы не можете скачивать файлы