Страна чудес (Дмитрий Дьяченко, Максим Свешников) [2015, комедия, DVDRip]

Ответить на тему
 
Автор Сообщение

user ®

Стаж: 7 лет 7 месяцев

Сообщений: 20008

Пост Пост: #1 от 30-Янв-2016 16:33

[Цитировать]

Страна чудес
Жанр: комедия
Год выпуска: 2015
Продолжительность: 01:19:55
Режиссёр: Дмитрий Дьяченко, Максим Свешников
В ролях: Елена Яковлева, Федор Добронравов, Александр Паль, Олеся Железняк, Сергей Лавыгин, Грант Тохатян, Ольга Лерман, Тимофей Трибунцев
Описание: Герои фильма — жители самых разных уголков нашей страны, самые обычные люди, с которыми случаются самые необычные вещи, просто чудеса какие-то. Семье пожарных Семёну и Любе из Костромы выпадает шанс осуществить заветную мечту: поехать в Москву на любимую программу «Поле Чудес», где им предстоит сделать выбор всей жизни «приз или деньги?». Неопытный ППСник, но опытный неудачник Саня должен не только пережить свой первый день в патруле, но ещё принять роды у своей жены и реанимировать своего напарника. Четвёрка новоиспечённых приятелей должна во что бы то ни стало в нелётную погоду улететь в Москву, а пара юных влюблённых каким-то непостижимым способом — примирить своих непримиримых родителей. А Валере вообще предстоит решить дилемму: спасать человечество от всемирного потопа или просто улететь с дружками по караоке — пришельцами, на их cтареньком НЛО? Всё это может случиться только раз в году, 31 декабря! И только у нас! Всё-таки… Мы такие одни во вселенной.
Сэмпл: http://multi-up.com/1086739
Качество видео: DVDRip
Формат видео: AVI
Видео: 720x304 (2.37:1), 25 fps, XviD build 73 ~2227 kbps avg, 0.41 bit/pixel
Аудио: 48 kHz, AC3 Dolby Digital, 3/2 (L,C,R,l,r) + LFE ch, ~384 kbps
MediaInfo
Формат : AVI
Формат/Информация : Audio Video Interleave
Размер файла : 1,46 Гбайт
Продолжительность : 1 ч. 19 м.
Общий поток : 2621 Кбит/сек
Программа кодирования : VirtualDubMod 1.5.10.3 (build 2550/release)
Библиотека кодирования : VirtualDubMod build 2550/release
Видео
Идентификатор : 0
Формат : MPEG-4 Visual
Профиль формата : Advanced Simple@L5
Параметр BVOP формата : 1
Параметр QPel формата : Нет
Параметр GMC формата : Без точки перехода
Параметр матрицы формата : Выборочная
Идентификатор кодека : XVID
Идентификатор кодека/Подсказка : XviD
Продолжительность : 1 ч. 19 м.
Битрейт : 2227 Кбит/сек
Ширина : 720 пикселей
Высота : 304 пикселя
Соотношение сторон : 2,35:1
Частота кадров : 25,000 кадров/сек
Цветовое пространство : YUV
Субдискретизация насыщенности : 4:2:0
Битовая глубина : 8 бит
Тип развёртки : Прогрессивная
Метод сжатия : С потерями
Бит/(Пиксели*Кадры) : 0.407
Размер потока : 1,24 Гбайт (85%)
Библиотека кодирования : XviD 73
Аудио
Идентификатор : 1
Формат : AC-3
Формат/Информация : Audio Coding 3
Расширение режима : CM (complete main)
Параметр Endianness формата : Big
Идентификатор кодека : 2000
Продолжительность : 1 ч. 19 м.
Вид битрейта : Постоянный
Битрейт : 384 Кбит/сек
Каналы : 6 каналов
Расположение каналов : Front: L C R, Side: L R, LFE
Частота : 48,0 КГц
Частота кадров : 31,250 кадров/сек (1536 spf)
Метод сжатия : С потерями
Размер потока : 219 Мбайт (15%)
Выравнивание : Разделение по промежуткам
Продолжительность промежутка : 40 мс. (1,00 видеокадр)
Время предзагрузки промежутка : 500 мс.
Скриншоты
Скачать

Скачать торрент!

Как скачивать? · Что такое торрент? · Рейтинг и ограничения

Сайт не распространяет и не хранит электронные версии произведений, а лишь предоставляет доступ к создаваемому пользователями каталогу ссылок на торрент-файлы, которые содержат только списки хеш-сумм

[Профиль] [ЛС]
Показать сообщения:    
Ответить на тему

Текущее время: Сегодня 09:00

Часовой пояс: GMT + 4



Вы не можете начинать темы
Вы не можете отвечать на сообщения
Вы не можете редактировать свои сообщения
Вы не можете удалять свои сообщения
Вы не можете голосовать в опросах
Вы не можете прикреплять файлы к сообщениям
Вы не можете скачивать файлы